<?xml version="1.0" standalone="no"?>
<!DOCTYPE svg PUBLIC "-//W3C//DTD SVG 1.1//EN" "http://www.w3.org/Graphics/SVG/1.1/DTD/svg11.dtd" >
<!--
2013-9-30: Created.
-->
<svg>
<metadata>
Created by iconfont
</metadata>
<defs>

<font id="iconfont" horiz-adv-x="1024" >
  <font-face
    font-family="iconfont"
    font-weight="500"
    font-stretch="normal"
    units-per-em="1024"
    ascent="896"
    descent="-128"
  />
    <missing-glyph />
    
    <glyph glyph-name="home" unicode="&#58992;" d="M950.3 406.6l-416.5 416.4c-12 12-31.5 12-43.5 0l-416.4-416.4c-19.4-19.4-5.7-52.5 21.7-52.5h66.8v-353.7c0-35.3 28.7-64 64-64h157.6v127.8c0 35.3 28.7 64 64 64h128c35.3 0 64-28.7 64-64v-127.8h156.6c35.3 0 64 28.7 64 64v353.7h67.8c27.5 0 41.2 33.2 21.9 52.5z"  horiz-adv-x="1024" />

    
    <glyph glyph-name="jiantouleft" unicode="&#58954;" d="M867.49420885 794.19511808l0-817.52839965c0-45.24217685-36.30621241-81.83131363-81.55071829-81.83131363-21.03182563 0-40.05640647 8.07322169-54.46805163 21.03298958L192.02610516 320.15471616c-35.72639403 27.09081771-43.22794723 78.09858333-16.13712951 114.11605049 4.61060893 6.33842233 10.09560235 11.81526585 16.14527942 16.13712952L737.23287779 859.32345458c35.73454393 26.79159353 87.01708402 19.5892645 113.82497736-16.42587477 11.24243342-14.70271829 16.42820267-31.70375453 16.42820265-48.70246173l0 0L867.49420885 794.19511808zM867.49420885 794.19511808"  horiz-adv-x="1024" />

    
    <glyph glyph-name="chart" unicode="&#59018;" d="M128 768h768a42.666667 42.666667 0 0 0 42.666667-42.666667v-682.666666a42.666667 42.666667 0 0 0-42.666667-42.666667H128a42.666667 42.666667 0 0 0-42.666667 42.666667V725.333333a42.666667 42.666667 0 0 0 42.666667 42.666667z m170.666667-426.666667v-170.666666h85.333333v170.666666H298.666667z m170.666666 256v-426.666666h85.333334V597.333333h-85.333334z m170.666667-128v-298.666666h85.333333v298.666666h-85.333333z"  horiz-adv-x="1024" />

    
    <glyph glyph-name="jiantouyou" unicode="&#60322;" d="M156.50579115-26.195118070000035l0 817.52839964c0 45.24217686 36.30621241 81.83131364 81.55071829 81.83131363 21.03182562 0 40.05640647-8.07322169 54.46805163-21.03298958L831.97389483 447.84528384c35.72639404-27.09081771 43.22794723-78.09858333 16.13712952-114.11605048-4.61060893-6.33842233-10.09560235-11.81526585-16.14527942-16.13712953L286.76712221-91.32345457999998c-35.73454393-26.79159353-87.01708402-19.58926451-113.82497736 16.42587478-11.24243342 14.70271829-16.42820267 31.70375453-16.42820265 48.70246172l0 0L156.50579115-26.195118070000035zM156.50579115-26.195118070000035"  horiz-adv-x="1024" />

    
    <glyph glyph-name="weixin" unicode="&#58923;" d="M692.699238 559.112294c11.619123 0 23.117414-0.831898 34.517504-2.108006C696.19497 701.450035 541.769728 808.772403 365.488742 808.772403 168.405197 808.772403 6.977229 674.464461 6.977229 503.892582c0-98.493235 53.707366-179.306803 143.459123-242.033357l-35.857101-107.840102 125.329408 62.837146c44.84311-8.861798 80.827085-18.002022 125.578138-18.002022 11.250688 0 22.40215 0.561766 33.469645 1.428582-7.001702 23.95351-11.06647 49.054208-11.06647 75.120947C387.891917 432.023757 522.3936 559.112294 692.699238 559.112294zM497.405542 663.593882c30.611456 0 55.425536-24.815206 55.425536-55.427379s-24.814182-55.426355-55.425536-55.426355c-30.613504 0-55.427584 24.815206-55.427584 55.426355S466.794086 663.593882 497.405542 663.593882zM246.567526 551.622656c-30.611456 0-55.427584 24.815206-55.427584 55.426355 0 30.611149 24.81623 55.426355 55.427584 55.426355 30.613504 0 55.428608-24.815206 55.428608-55.426355C301.996134 576.438886 277.18103 551.622656 246.567526 551.622656zM1017.379942 278.544179c0 143.330406-143.423283 260.165325-304.515686 260.165325-170.58089 0-304.924979-116.834918-304.924979-260.165325 0-143.57801 134.34409-260.158157 304.924979-260.158157 35.697459 0 71.712154 9.0112 107.569254 17.99895l98.340659-53.861683-26.969293 89.592525C963.769856 126.102323 1017.379942 197.690778 1017.379942 278.544179zM619.184947 318.724301c-21.799322 0-39.469466 17.673523-39.469466 39.471002 0 21.799526 17.671168 39.468954 39.469466 39.468954s39.469466-17.670451 39.469466-39.468954C658.656563 336.3968 640.983347 318.724301 619.184947 318.724301zM816.270541 316.485325c-21.80137 0-39.47049 17.672499-39.47049 39.468954 0 21.80055 17.670144 39.468954 39.47049 39.468954 21.798298 0 39.469466-17.669427 39.469466-39.468954C855.741133 334.157824 838.068941 316.485325 816.270541 316.485325z"  horiz-adv-x="1024" />

    
    <glyph glyph-name="dianhua1" unicode="&#58904;" d="M399.86062222 587.88977778l-106.7994074-108.74121481c55.58423703-123.42613333 173.54903703-260.93037037 310.32509629-307.16965927l92.35721481 91.99312593s218.81742222-38.22933333 267.96942223-62.01647408c42.71976297-20.6317037 56.79786667-66.5069037 50.1229037-123.06204444-7.03905185-60.80284445-86.77451852-194.78755555-230.22554074-196.24391111-143.45102222-1.45635555-354.74394075 106.67804445-506.08355556 266.02761482-151.33961482 159.5922963-286.29522963 361.78299259-264.57125925 533.39022221C34.43674075 853.79602963 183.95591111 884.50085925 221.3357037 887.29220741c37.86524445 2.79134815 67.8418963-8.25268148 90.65813333-36.53025186 29.36983703-36.53025185 87.86678518-262.87217778 87.86678519-262.87217777z"  horiz-adv-x="1024" />

    
    <glyph glyph-name="zuanshi" unicode="&#59215;" d="M513.137778-56.32c-9.102222 0-18.204444 4.551111-25.031111 11.377778l-477.866667 484.693333c-9.102222 9.102222-13.653333 25.031111-6.826667 38.684445l129.706667 323.128888c4.551111 13.653333 18.204444 22.755556 34.133333 22.755556h648.533334c13.653333 0 25.031111-6.826667 31.857777-18.204444l172.942223-323.128889c6.826667-13.653333 4.551111-29.582222-6.826667-40.96l-475.591111-486.968889c-6.826667-6.826667-15.928889-11.377778-25.031111-11.377778z m-434.631111 530.204444l434.631111-443.733333 432.355555 441.457778-152.462222 282.168889H190.008889l-111.502222-279.893334zM513.137778 228.124444c-9.102222 0-18.204444 4.551111-25.031111 11.377778l-191.146667 200.248889c-13.653333 13.653333-13.653333 36.408889 2.275556 50.062222 13.653333 13.653333 36.408889 13.653333 50.062222-2.275555l163.84-172.942222 163.84 172.942222c13.653333 13.653333 36.408889 15.928889 50.062222 2.275555 13.653333-13.653333 15.928889-36.408889 2.275556-50.062222l-191.146667-200.248889c-6.826667-6.826667-15.928889-11.377778-25.031111-11.377778z"  horiz-adv-x="1024" />

    
    <glyph glyph-name="shuaxin" unicode="&#59849;" d="M836.156798 77.105355l84.137259-84.140329-260.23086-47.77612 47.77612 260.234953 83.266425-83.271542c140.750651 149.993153 138.578172 386.019751-7.494694 532.092617-89.910753 89.909729-218.374566 129.018445-343.605756 104.622826L427.975305 821.479773C574.049195 849.946105 723.873502 804.298462 828.76955 699.402413c170.917718-170.921811 173.024705-447.358771 7.387248-622.297058zM206.684316 611.599671c-112.200408-149.924591-100.876502-363.494735 34.958186-499.323282 83.029018-83.034135 197.7222-122.803907 314.675866-109.094674l7.256264-63.361073C427.121867-76.147028 293.357328-29.751349 196.489116 67.121979 35.763528 227.835288 24.286126 481.898681 161.16254 657.117354l-86.331228 86.331228 260.23086 47.77612-47.772027-260.229837-80.605829 80.604806z m0 0"  horiz-adv-x="1024" />

    
    <glyph glyph-name="jianzhi" unicode="&#58997;" d="M899.493 514.546c-21.183 50.083-51.503 95.056-90.115 133.669-38.613 38.613-83.587 68.933-133.669 90.115-37.040 15.667-75.719 25.814-115.477 30.338v9.092c0 29.705-24.304 54.007-54.007 54.007-29.705 0-54.007-24.304-54.007-54.007v-10.573c-35.703-5.070-70.482-14.712-103.924-28.857-50.083-21.183-95.056-51.503-133.669-90.115s-68.933-83.587-90.115-133.669c-21.938-51.867-33.062-106.947-33.062-163.708s11.123-111.841 33.062-163.708c21.183-50.083 51.503-95.056 90.115-133.669 38.613-38.612 83.587-68.932 133.669-90.115 51.867-21.938 106.947-33.062 163.708-33.062 37.676 0 75.047 4.99 111.075 14.832 15.81 4.318 25.126 20.636 20.807 36.446s-20.635 25.127-36.446 20.807c-30.933-8.449-63.041-12.733-95.436-12.733-199.168 0-361.204 162.035-361.204 361.204s162.035 361.204 361.204 361.204 361.204-162.035 361.204-361.204c0-30.63-3.835-61.046-11.4-90.407-4.089-15.873 5.462-32.052 21.334-36.141 15.874-4.084 32.052 5.463 36.141 21.334 8.809 34.195 13.276 69.594 13.276 105.214-0.002 56.76-11.125 111.839-33.063 163.706zM714.849 323.388h-200.802c-16.39 0-29.676 13.286-29.676 29.676v199.828c0 16.389 13.286 29.676 29.676 29.676s29.676-13.287 29.676-29.676v-170.151h171.126c16.39 0 29.676-13.287 29.676-29.676 0-16.39-13.286-29.677-29.676-29.677zM773.724 233.205c-80.444 0-145.656-65.212-145.656-145.656s65.212-145.656 145.656-145.656 145.656 65.212 145.656 145.656-65.212 145.656-145.656 145.656zM825.707 72.302c7.064 0 12.791-5.727 12.791-12.791s-5.727-12.791-12.791-12.791h-39.191v-34.466c0-7.064-5.727-12.791-12.791-12.791s-12.791 5.727-12.791 12.791v34.466h-39.192c-7.064 0-12.791 5.727-12.791 12.791s5.727 12.791 12.791 12.791h39.191v24.374h-39.191c-7.064 0-12.791 5.727-12.791 12.791s5.727 12.791 12.791 12.791h30.257l-30.864 30.864c-4.996 4.996-4.996 13.094 0 18.090 4.997 4.995 13.095 4.995 18.090 0l34.161-34.162 34.836 34.836c4.995 4.995 13.095 4.995 18.090 0 4.996-4.996 4.996-13.094 0-18.090l-31.538-31.538h30.933c7.064 0 12.791-5.727 12.791-12.791s-5.727-12.791-12.791-12.791h-39.191v-24.374h39.191z"  horiz-adv-x="1024" />

    
    <glyph glyph-name="zhaopin" unicode="&#59407;" d="M210.8 642.5c-13.5 0-24.5-11-24.5-24.5s11-24.5 24.5-24.5h380.7c13.5 0 24.5 11 24.5 24.5s-11 24.5-24.5 24.5H210.8zM349.9 438H210.8c-13.5 0-24.5-11-24.5-24.5s11-24.5 24.5-24.5h139.1c13.5 0 24.5 11 24.5 24.5s-11 24.5-24.5 24.5zM309.8 2.7999999999999545H112.9V779.4h664V639c0-13.5 11-24.5 24.5-24.5s24.5 11 24.5 24.5V803.8c0 6.4-2.6 12.8-7.1 17.3s-10.8 7.2-17.3 7.2h-713c-6.5 0-12.7-2.5-17.3-7.2-4.6-4.6-7.2-10.9-7.2-17.3v-825.5c0-13.5 11-24.5 24.5-24.5h221.4c13.1 0.6 23.4 11.3 23.4 24.5s-10.3 23.9-23.5 24.5zM952.9 155.10000000000002c-4.5 4.6-10.9 7.2-17.3 7.2-6.5 0-12.7-2.6-17.3-7.2L761.9-1.2000000000000455l-52.7 52.7c-4.6 4.3-10.6 6.7-16.8 6.7-6.5 0-12.7-2.6-17.3-7.2-9.5-9.5-9.7-24.5-0.4-34.2l70-70c4.6-4.6 10.8-7.2 17.3-7.2s12.7 2.6 17.3 7.2l173.6 173.6c4.6 4.6 7.2 10.8 7.2 17.3 0 6.6-2.6 12.8-7.2 17.4zM825.6 134.79999999999995c6.6 0 12.7 2.6 17.3 7.2l4.1 4.1c7.3 7.3 7.4 19.2 0.1 26.6l-0.7 0.6h-0.1c-26.7 26.6-58 47-93.1 60.7 45.6 32 72.6 84 72.3 140-0.2 45-18.2 87.3-50.5 119.3-32.2 31.9-74.6 49.5-119.4 49.5-1.9 0-3.8 0-5.7-0.1-44.2-1.5-85.5-19.9-116.3-51.8-30.8-31.8-47.7-73.7-47.7-118 0-55.5 27-107.2 72.3-139-35.3-13.7-66.8-34.3-93.6-61.1-25.3-25.2-45-54.7-58.7-87.6-13.7-33-20.5-67.8-20.4-103.5v-3.5c0.2-13.4 11.2-24.2 24.5-24.2h0.1c6.5 0 12.8 2.6 17.3 7.2 4.6 4.6 7.1 11 7.1 17.5v3.2c0 122 99.3 221.3 221.3 221.3h0.2c57.2 0 111.4-21.8 152.6-61.4 4.7-4.6 10.7-7 17-7z m-49 234c-2.2-63.2-53.5-114.6-116.7-116.8-1.3 0-2.6-0.1-3.9-0.1-32.3 0-62.7 12.6-85.5 35.4-23.6 23.6-36.4 56.2-35.4 89.5 2.1 63.4 53.4 114.7 116.8 116.8 1.3 0 2.6 0.1 3.9 0.1 32.3 0 62.7-12.6 85.5-35.4 23.4-23.7 36.3-56.3 35.3-89.5z"  horiz-adv-x="1024" />

    
    <glyph glyph-name="jiaoyu" unicode="&#59277;" d="M997.286957 626.643478l-476.382609 155.826087c-11.130435 2.226087-20.034783 2.226087-28.939131 2.226087-13.356522 0-22.26087-2.226087-33.391304-6.678261h-2.226087c-4.452174-2.226087-8.904348-2.226087-13.356522-4.452174-6.678261-2.226087-422.956522-186.991304-427.408695-186.991304-4.452174-2.226087-8.904348-6.678261-11.130435-11.130435-4.452174-8.904348-4.452174-20.034783 0-31.165217 4.452174-11.130435 11.130435-17.808696 22.260869-22.26087L198.121739 450.782609v-311.652174c0-2.226087 0-6.678261 2.226087-8.904348 0 0 8.904348-20.034783 11.130435-24.486957C249.321739 32.278261 369.530435-16.695652 512-16.695652c138.017391 0 258.226087 48.973913 302.747826 122.434782 2.226087 4.452174 6.678261 13.356522 11.130435 20.034783 2.226087 2.226087 2.226087 6.678261 2.226087 11.130435v333.913043l77.913043 37.843479V250.434783c0-11.130435 8.904348-22.26087 22.26087-22.26087 11.130435 0 22.26087 8.904348 22.260869 22.26087V530.921739l62.330435 31.165218c4.452174 2.226087 8.904348 6.678261 11.130435 11.130434 4.452174 8.904348 4.452174 20.034783 0 31.165218-6.678261 8.904348-15.582609 15.582609-26.713043 22.260869z m-213.704348-485.286956l-4.452174-8.904348c0-2.226087-2.226087-4.452174-2.226087-4.452174C745.73913 76.8 645.565217 27.826087 512 27.826087c-138.017391 0-238.191304 51.2-262.678261 100.173913 0 2.226087-2.226087 6.678261-4.452174 11.130435l-2.226087 8.904348V430.747826l244.869565-100.173913h2.226087c28.93913-6.678261 44.521739-2.226087 60.104348 4.452174L783.582609 450.782609v-309.426087zM527.582609 372.869565c-8.904348-4.452174-13.356522-4.452174-17.808696-4.452174-2.226087 0-6.678261 0-8.904348 2.226087h-2.226087l-445.217391 182.539131 400.695652 175.860869c2.226087 0 4.452174 2.226087 6.678261 2.226087 6.678261 4.452174 20.034783 8.904348 33.391304 8.904348 11.130435 0 26.713043-4.452174 37.843479-8.904348 2.226087 0 6.678261-2.226087 6.67826-2.226087l429.634783-140.243478-440.765217-215.930435zM926.052174 150.26087c-11.130435 0-22.26087-8.904348-22.26087-22.26087v-64.556522c0-11.130435 8.904348-22.26087 22.26087-22.260869 11.130435 0 22.26087 8.904348 22.260869 22.260869v64.556522c0 13.356522-8.904348 22.26087-22.260869 22.26087z"  horiz-adv-x="1027" />

    
    <glyph glyph-name="jigou" unicode="&#59149;" d="M997.956857-22.508387 891.150296-22.508387l-0.314155 574.139246 107.1156 0.277316c9.500375 0 18.24248 5.304819 22.274306 13.513782 3.197832 6.41613 3.693112 13.56597 1.438769 20.222577-2.100848 6.213515-6.351662 11.150968-11.964496 13.901615L522.834766 842.68984c-6.897084 3.296069-15.417131 3.357468-21.98471 0.042979L16.652262 601.013569c-10.116405-4.217045-16.652262-13.58439-16.652262-23.863501 0-13.5936 11.859096-25.518187 25.379017-25.518187l107.491153 0 0-463.256856 0.748037 0 0-110.88239L25.379017-22.507364c-13.757329 0-25.379017-11.449773-25.379017-25.003464 0-13.935384 11.385305-25.27157 25.379017-25.27157l972.57784 0c14.139022 0 25.644053 11.336186 25.644053 25.27157C1023.601934-33.95816 1011.858472-22.508387 997.956857-22.508387zM132.248 602.442104 511.602957 791.854035l379.703905-189.410907L132.248 602.443128zM369.618199-22.508387 183.278233-22.508387 183.278233 551.630858l185.336102 0 0-463.256856 1.003863 0L369.618199-22.508387zM603.793636-22.508387 419.283342-22.508387 419.283342 551.630858l184.79682 0L603.793636-22.508387zM841.49334-22.508387 654.353149-22.508387 654.353149 88.374002l0.375553 0L654.728702 551.630858l185.336102 0 0-463.256856 1.429559 0L841.494363-22.508387z"  horiz-adv-x="1040" />

    
    <glyph glyph-name="fudao" unicode="&#58899;" d="M835.490909 633.018182c-46.545455 86.109091-128 151.272727-223.418182 176.872727C579.490909 821.527273 544.581818 826.181818 509.672727 826.181818 346.763636 826.181818 197.818182 714.472727 153.6 553.890909 125.672727 458.472727 139.636364 356.072727 186.181818 269.963636c46.545455-83.781818 121.018182-146.618182 214.109091-172.218182-11.636364-9.309091-23.272727-25.6-20.945455-44.218182 2.327273-16.290909 11.636364-30.254545 25.6-37.236364-4.654545-6.981818-6.981818-16.290909-4.654545-27.927273 2.327273-18.618182 16.290909-34.909091 34.909091-41.890909 2.327273-30.254545 37.236364-51.2 74.472727-51.2 39.563636 0 72.145455 23.272727 74.472727 48.872727 23.272727 4.654545 37.236364 27.927273 34.909091 51.2 0 6.981818-2.327273 11.636364-4.654545 18.618182 13.963636 9.309091 27.927273 27.927273 25.6 46.545455-2.327273 13.963636-9.309091 27.927273-20.945455 34.909091 116.363636 37.236364 214.109091 130.327273 249.018182 256C898.327273 446.836364 886.690909 546.909091 835.490909 633.018182L835.490909 633.018182zM593.454545 34.909091l-153.6 0c-9.309091 0-20.945455 4.654545-16.290909 13.963636 0 6.981818 6.981818 13.963636 16.290909 13.963636l155.927273 0c9.309091 0 16.290909-6.981818 16.290909-13.963636C612.072727 46.545455 602.763636 34.909091 593.454545 34.909091L593.454545 34.909091zM581.818182-25.6l-132.654545 0c-6.981818 0-13.963636 4.654545-13.963636 13.963636 0 6.981818 4.654545 13.963636 13.963636 13.963636l134.981818 0c9.309091 0 13.963636-6.981818 13.963636-13.963636C600.436364-18.618182 588.8-25.6 581.818182-25.6L581.818182-25.6zM830.836364 363.054545C791.272727 218.763636 658.618182 116.363636 512 116.363636c-30.254545 0-60.509091 4.654545-90.763636 11.636364-83.781818 25.6-155.927273 81.454545-200.145455 158.254545-41.890909 76.8-55.854545 167.563636-30.254545 253.672727C232.727273 686.545455 365.381818 786.618182 512 786.618182c30.254545 0 60.509091-4.654545 90.763636-11.636364 83.781818-25.6 155.927273-81.454545 200.145455-158.254545C842.472727 537.6 856.436364 446.836364 830.836364 363.054545L830.836364 363.054545zM830.836364 363.054545M607.418182 686.545455c-2.327273 0-6.981818 0-6.981818-4.654545 0-4.654545 2.327273-6.981818 4.654545-6.981818 74.472727-23.272727 128-81.454545 139.636364-158.254545 0-2.327273 2.327273-4.654545 4.654545-4.654545l2.327273 0c2.327273 0 4.654545 4.654545 4.654545 6.981818C744.727273 595.781818 684.218182 663.272727 607.418182 686.545455L607.418182 686.545455zM607.418182 686.545455"  horiz-adv-x="1024" />

    
    <glyph glyph-name="zhiye" unicode="&#58973;" d="M929.85714248-66h-707.14285664A160.90714248 160.90714248 0 0 0 62 94.71428584v450C62 633.3 134.12857167 705.42857168 222.71428584 705.42857168h707.14285664C1018.50714248 705.42857168 1090.57142832 633.3 1090.57142832 544.71428584v-450c0-88.65-72.06428584-160.71428584-160.71428584-160.71428584zM222.71428584 641.14285752C169.55 641.14285752 126.28571416 597.8785716699999 126.28571416 544.71428584v-450c0-53.16428584 43.26428584-96.42857168 96.42857168-96.42857168h707.14285664c53.16428584 0 96.42857168 43.26428584 96.42857168 96.42857168v450c0 53.16428584-43.26428584 96.42857168-96.42857168 96.42857168h-707.14285664z m514.28571416 32.14285664h-64.28571416V769.97142833L479.85714248 769.71428584v-96.42857168h-64.28571416V769.97142833A64.28571416 64.28571416 0 0 0 479.85714248 834h192.85714336c35.48571416 0 64.28571416-28.73571416 64.28571416-64.02857167V673.28571416zM576.28571416 317.07857168a32.14285752 32.14285752 0 0 0-32.14285664 32.14285665v59.78571415a32.14285752 32.14285752 0 0 0 64.28571416 0v-59.78571415a32.14285752 32.14285752 0 0 0-32.14285752-32.14285665z m0 79.00714248c-161.1 0-317.37857168 18.51428584-464.46428584 54.96428584a32.14285752 32.14285752 0 1 0 15.42857168 62.35714248c284.14285752-70.45714248 613.92857168-70.45714248 898.07142832 0a32.14285752 32.14285752 0 1 0 15.42857168-62.35714248c-147.08571416-36.51428584-303.36428584-54.96428584-464.46428584-54.96428584z"  horiz-adv-x="1170" />

    
    <glyph glyph-name="yishu" unicode="&#58957;" d="M512-128C229.888-128 0 101.888 0 384S229.888 896 512 896s512-229.888 512-512c0-104.96-44.544-180.736-132.096-225.28-52.736-26.624-109.056-29.696-159.232-31.744-60.928-3.072-99.328-6.144-117.76-37.376-13.312-22.528-3.584-41.984 12.8-71.68 15.36-27.136 36.352-65.024 7.168-100.352C601.6-122.88 551.936-128 512-128z m0 970.24C259.072 842.24 53.76 636.416 53.76 384S259.584-74.24 512-74.24c41.984 0 66.56 7.68 81.408 26.112 5.12 6.144 2.56 13.312-12.288 40.448-16.384 29.696-41.472 74.752-12.288 124.928 33.792 57.856 98.304 60.928 161.28 63.488 46.592 2.048 94.72 4.608 137.216 26.112 69.12 35.328 102.912 93.184 102.912 177.664C970.24 636.928 764.928 842.24 512 842.24zM143.872 440.32a70.144 70.144 0 1 1 140.288 0 70.144 70.144 0 1 1-140.288 0zM313.856 651.264a70.144 70.144 0 1 1 140.288 0 70.144 70.144 0 1 1-140.288 0zM574.976 666.624a70.144 70.144 0 1 1 140.288 0 70.144 70.144 0 1 1-140.288 0zM734.208 469.504a70.144 70.144 0 1 1 140.288 0 70.144 70.144 0 1 1-140.288 0z"  horiz-adv-x="1024" />

    
    <glyph glyph-name="kaoshi" unicode="&#58903;" d="M131.025455-106.589091a77.498182 77.498182 0 0 0-77.73091 77.730909V742.632727A74.938182 74.938182 0 0 0 128 817.570909h149.643636l5.12 8.610909a66.327273 66.327273 0 0 0 59.345455 35.374546h349.090909A64.698182 64.698182 0 0 0 749.381818 826.181818l4.654546-9.309091H907.636364a70.981818 70.981818 0 0 0 50.967272-21.178182 64.698182 64.698182 0 0 0 18.152728-46.545454v-781.265455a74.705455 74.705455 0 0 0-74.705455-74.472727z m4.18909 51.665455h763.345455a30.487273 30.487273 0 0 1 30.487273 30.487272V735.650909a30.021818 30.021818 0 0 1-30.021818 30.021818h-129.861819a4.654545 4.654545 0 0 1-4.654545-4.887272V709.818182a75.869091 75.869091 0 0 0-75.636364-75.636364H349.090909A75.869091 75.869091 0 0 0 272.989091 709.818182V760.785455a4.887273 4.887273 0 0 1-4.887273 4.887272H139.636364A33.047273 33.047273 0 0 1 106.821818 733.090909v-759.621818a28.392727 28.392727 0 0 1 28.392727-28.392727zM327.912727 686.545455h374.690909a4.887273 4.887273 0 0 1 4.887273 4.887272V802.909091a4.887273 4.887273 0 0 1-4.887273 4.887273h-374.690909a4.887273 4.887273 0 0 1-4.654545-4.887273v-110.778182a4.887273 4.887273 0 0 1 4.654545-5.585454z m127.301818-535.272728a30.952727 30.952727 0 0 0-19.781818 10.24l-116.363636 129.396364a23.272727 23.272727 0 0 0 1.629091 36.072727 23.272727 23.272727 0 0 0 17.687273 7.68 23.272727 23.272727 0 0 0 18.850909-8.610909l94.254545-105.425454a4.421818 4.421818 0 0 1 6.981818 0L674.909091 456.145455a25.134545 25.134545 0 0 0 18.850909 8.610909 29.556364 29.556364 0 0 0 19.549091-7.912728 24.669091 24.669091 0 0 0 9.309091-16.989091 26.298182 26.298182 0 0 0-7.214546-19.54909L474.763636 158.254545a28.392727 28.392727 0 0 0-19.549091-6.981818z"  horiz-adv-x="1024" />

    
    <glyph glyph-name="liuxue" unicode="&#59034;" d="M389.12-11.093c-1.067 0-1.92 0-2.987 0.213a21.76 21.76 0 0 0-15.786 10.667l-82.56 148.693-148.694 82.56a20.992 20.992 0 0 0-10.666 15.787c-0.854 6.613 1.28 13.226 5.973 18.133l51.413 51.413c4.907 4.907 11.734 7.04 18.56 5.974l91.947-15.36 134.4 134.4-265.6 140.373a21.12 21.12 0 0 0-11.093 15.573c-1.067 6.614 1.28 13.44 5.973 18.347l68.48 68.48c5.547 5.547 13.653 7.68 21.12 5.333l330.027-98.986L698.88 709.76c37.547 37.547 124.8 42.24 158.507 8.533 15.573-15.573 23.893-44.586 22.4-77.653-1.707-33.493-13.014-62.933-30.934-80.853L729.6 440.533l98.987-330.026c2.346-7.467 0.213-15.574-5.334-21.12l-68.48-68.48a21.368 21.368 0 0 0-18.346-5.974c-6.614 1.067-12.587 5.12-15.787 11.094L580.267 291.413l-134.4-134.4 15.36-91.946c1.066-6.827-1.067-13.654-5.974-18.56l-51.413-51.414c-3.627-4.053-9.173-6.186-14.72-6.186zM184.533 254.72l129.28-71.893c3.414-1.92 6.4-4.907 8.32-8.32l71.894-129.28 23.466 23.466-15.36 91.947c-1.066 6.827 1.067 13.653 5.974 18.56l162.56 162.56c4.693 4.907 11.52 7.04 18.346 5.973 6.614-1.066 12.587-5.12 15.787-11.093l140.373-265.387 39.04 39.04-98.986 330.027a20.992 20.992 0 0 0 5.333 21.12l128.427 128.427c10.24 10.24 17.28 30.506 18.346 52.693 1.067 22.187-4.053 39.68-9.813 45.44-14.507 14.507-74.667 14.933-98.133-8.533L600.96 551.04c-5.547-5.547-13.653-7.68-21.12-5.333l-330.027 98.986-39.04-38.826L476.16 465.493c5.973-3.2 10.027-8.96 11.093-15.786 1.067-6.614-1.28-13.44-5.973-18.347L318.72 268.8c-4.907-4.907-11.733-7.04-18.56-5.973l-91.947 15.36-23.68-23.467z"  horiz-adv-x="1024" />

    
    <glyph glyph-name="kaoshi1" unicode="&#58922;" d="M353.3 739h-52.9c-3 0-6.8-2.1-7.6-5l-46.1-258.6c-0.8-5.7 3.8-10.7 9.1-10.7h48.4c3 0 6.1 2.1 6.1 5l49.2 261.4c1.4 4.4-1.6 7.9-6.2 7.9zM762.5 719.9c-12.9 14.2-34.8 21.3-58.2 21.3s-47.7-7.1-65.8-21.3c-18.2-13.5-29.5-30.5-34.8-59L581 541.6c-5.3-28.4 0-44.8 12.9-59 12.8-14.2 34.8-21.3 58.2-21.3s47.7 7.1 65.8 21.3c18.2 13.5 29.5 30.6 34.8 59l22.7 119.3c5.3 28.4 0 45.5-12.9 59zM710.3 663l-23.5-124.3c-3-14.9-12.9-22.7-25-22.7s-18.9 7.1-16.6 22.7L668.7 663c3 14.9 12.9 22.7 25 22.7 12.1 0.1 19.7-7 16.6-22.7zM553.7 719.9c-12.9 14.2-34.8 21.3-58.2 21.3-23.5 0-47.7-7.1-65.8-21.3-18.2-13.5-29.5-30.5-34.8-59l-22.7-119.3c-5.3-28.4 0-44.8 12.9-59 12.8-14.2 34.8-21.3 58.2-21.3s47.7 7.1 65.8 21.3c18.2 13.5 29.5 30.6 34.8 59l22.7 119.3c5.3 28.4 0 45.5-12.9 59zM501.5 663L478 538.7c-3-14.9-12.9-22.7-25-22.7s-18.9 7.1-16.6 22.7L459.9 663c3 14.9 12.9 22.7 25 22.7 12.1 0.1 19.6-7 16.6-22.7zM853.7-120.8H170.3c-48.3 0-87.6 37.8-87.6 84.4V802.9c0 46.5 39.3 84.4 87.6 84.4h683.4c48.3 0 87.6-37.8 87.6-84.4v-839.3c0-46.5-39.3-84.4-87.6-84.4z m-683.4 938c-9.5 0-17.6-6.6-17.6-14.4v-839.3c0-7.8 8-14.4 17.6-14.4h683.4c9.5 0 17.6 6.6 17.6 14.4V802.9c0 7.8-8 14.4-17.6 14.4H170.3zM332.4 286.5h-87.6c-19.3 0-35 15.7-35 35s15.7 35 35 35h87.6c19.3 0 35-15.7 35-35s-15.7-35-35-35zM332.4 163.1h-87.6c-19.3 0-35 15.7-35 35s15.7 35 35 35h87.6c19.3 0 35-15.7 35-35s-15.7-35-35-35zM332.4 39.7h-87.6c-19.3 0-35 15.7-35 35s15.7 35 35 35h87.6c19.3 0 35-15.7 35-35s-15.7-35-35-35zM571.1 286.5h-87.6c-19.3 0-35 15.7-35 35s15.7 35 35 35h87.6c19.3 0 35-15.7 35-35s-15.6-35-35-35zM571.1 163.1h-87.6c-19.3 0-35 15.7-35 35s15.7 35 35 35h87.6c19.3 0 35-15.7 35-35s-15.6-35-35-35zM571.1 39.7h-87.6c-19.3 0-35 15.7-35 35s15.7 35 35 35h87.6c19.3 0 35-15.7 35-35s-15.6-35-35-35zM809.9 286.5h-87.6c-19.3 0-35 15.7-35 35s15.7 35 35 35h87.6c19.3 0 35-15.7 35-35s-15.7-35-35-35zM809.9 163.1h-87.6c-19.3 0-35 15.7-35 35s15.7 35 35 35h87.6c19.3 0 35-15.7 35-35s-15.7-35-35-35zM809.9 39.7h-87.6c-19.3 0-35 15.7-35 35s15.7 35 35 35h87.6c19.3 0 35-15.7 35-35s-15.7-35-35-35z"  horiz-adv-x="1024" />

    
    <glyph glyph-name="jineng-copy" unicode="&#58961;" d="M958.539 88.181l-280.946 285.503c-13.257 13.257-34.63 13.257-47.888 0l-20.464-18.807-48.467 49.047c0 0 77.549 85.17 81.359 83.431 82.685-36.868 141.261-20.298 208.534 45.153 59.238 59.238 71.748 144.74 40.928 211.932l-115.99-113.92c-11.683-11.683-30.655-11.683-42.254 0l-49.461 49.378c-11.683 11.683-11.683 30.655 0 42.337l110.853 110.108c-63.712 20.214-139.106 2.817-192.876-50.954-87.822-84.176-74.316-144.326-43.91-211.351 1.243-2.817-77.795-87.242-77.795-87.242h-5.22l-253.936 255.759c0 0 11.103 33.472-7.954 52.61l-41.093 39.27-77.795-77.795 41.093-39.27c0 0 31.235-19.056 53.771-8.119l247.806-250.788 4.971-8.7-324.442-295.61-42.337-42.42c-37.117-37.034-37.117-97.102 0-134.134 37.034-36.951 97.018-36.951 134.134 0l42.337 42.502c0 0 190.474 246.148 273.738 345.405l44.739-45.071-24.524-28.086c-13.257-13.090-13.257-34.548 0-47.805l279.206-281.774c13.173-13.257 34.63-13.257 47.805 0l86.082 81.609c13.257 13.173 13.257 34.715 0 47.805zM184.716 44.271c-11.599-11.683-30.489-11.683-42.172 0-11.683 11.599-11.683 30.489 0 42.254 11.683 11.683 30.571 11.683 42.172 0 11.683-11.764 11.683-30.737 0-42.254zM862.515 1.024c-5.633-5.551-14.747-5.551-20.298 0l-250.208 262.72c-5.551 5.551-5.551 14.747 0 20.298 5.633 5.551 14.747 5.551 20.298 0l250.292-262.72c5.551-5.551 5.551-14.747-0.083-20.298zM914.462 52.888c-5.551-5.551-14.665-5.551-20.298 0l-250.208 262.802c-5.633 5.633-5.633 14.665 0 20.298 5.551 5.551 14.665 5.551 20.214 0l250.292-262.72c5.633-5.633 5.633-14.665 0-20.382z"  horiz-adv-x="1024" />

    
    <glyph glyph-name="rss" unicode="&#59088;" d="M554.666667 0c-25.6 0-42.666667 17.066667-42.666667 42.666667 0 187.733333-153.6 341.333333-341.333333 341.333333-25.6 0-42.666667 17.066667-42.666667 42.666667s17.066667 42.666667 42.666667 42.666666c234.666667 0 426.666667-192 426.666666-426.666666 0-25.6-17.066667-42.666667-42.666666-42.666667zM853.333333 0c-25.6 0-42.666667 17.066667-42.666666 42.666667 0 354.133333-285.866667 640-640 640-25.6 0-42.666667 17.066667-42.666667 42.666666s17.066667 42.666667 42.666667 42.666667c401.066667 0 725.333333-324.266667 725.333333-725.333333 0-25.6-17.066667-42.666667-42.666667-42.666667zM213.333333 85.333333m-85.333333 0a85.333333 85.333333 0 1 1 170.666667 0 85.333333 85.333333 0 1 1-170.666667 0Z"  horiz-adv-x="1024" />

    
    <glyph glyph-name="lunkuodasan-" unicode="&#58895;" d="M572.509091 37.23636399999998A404.945455 404.945455 0 1 0 977.454545 444.509091a407.272727 407.272727 0 0 0-404.945454-407.272727z m0 765.672727A358.4 358.4 0 1 1 930.909091 444.509091 358.4 358.4 0 0 1 572.509091 802.909091zM75.380364 163.14181799999994l32.907636 32.907637 215.086545-215.086546-32.907636-32.930909zM53.76-40.82036400000004l215.552 215.575273 32.930909-32.907636-215.575273-215.575273z"  horiz-adv-x="1024" />

    
    <glyph glyph-name="lunkuodasan-1" unicode="&#58897;" d="M463.127273-81.45454500000005a416.581818 416.581818 0 1 0 416.581818 416.581818A416.581818 416.581818 0 0 0 463.127273-81.45454500000005z m0 786.618181a370.036364 370.036364 0 1 1 370.036363-370.036363A370.036364 370.036364 0 0 1 463.127273 705.163636zM740.747636 644.933818l171.147637 171.147637 32.907636-32.907637-171.147636-171.147636zM977.454545 605.090909h-46.545454V788.945455a13.963636 13.963636 0 0 1-13.963636 13.963636h-183.854546V849.454545h183.854546A60.509091 60.509091 0 0 0 977.454545 788.945455z"  horiz-adv-x="1024" />

    
    <glyph glyph-name="qq" unicode="&#58894;" d="M933.409261 195.670727l0-0.070608M589.618287-22.821519c-15.380292 6.115278-29.450752 11.709693-56.942897 12.300141l-2.053776 0.047072-1.77032 0.49528c-4.673439 1.322112-12.760628-2.478448-25.377994-8.379854-5.736655-2.691295-12.18246-5.713119-18.874883-8.570189l-0.177032-0.047072c-45.917796-19.003819-111.984491-25.426089-170.331363-19.381419-56.446593 5.855358-106.826004 23.749914-127.731126 53.731762l-3.245927 4.650927 0.554632 5.548366c0.424672 4.342912 1.239224 8.475022 2.478448 12.393261l-10.151197 3.612271 4.273327 13.904685c5.26491 17.234523 13.928221 32.201399 27.916816 43.509956 6.834662 5.500271 14.83794 10.057053 24.198122 13.43294-9.395998 9.184173-18.248619 19.523659-26.477025 31.114648-9.762341 13.763468-18.662035 29.29828-26.558889 46.791699-0.861624-1.1328-1.723248-2.266623-2.608407-3.352351-7.519254-9.371438-16.136515-17.705244-25.130354-25.637913l-0.814552-0.7552-0.791016-0.51984c-17.115819-11.402701-31.338752-12.417821-43.120077-4.650927-10.221806 6.728238-16.360619 19.783579-19.181875 37.962613l-0.059352 0.23536c-7.67275 54.936193 0.661056 102.080933 21.035082 143.346779 19.086707 38.646182 48.703235 71.815629 85.566818 101.159958-0.165776 11.260461 0.141216 22.309098 1.710968 32.720216 1.889023 12.607132 5.595438 24.458041 12.334933 35.082006 1.192152 9.419534 2.667759 18.7439 5.77247 27.196409 3.211135 8.68787 7.909134 16.053628 15.132652 21.129226 9.998725 81.589227 41.196261 152.22396 92.673679 201.611787 49.611931 47.593971 117.625978 75.238588 203.205075 73.822332l0.118704 0c101.407598-2.407839 176.657442-30.761608 227.508597-78.614475 53.17713-50.048883 79.169107-120.754225 80.196507-205.01121 14.117532-12.464893 23.230074-27.881001 27.314089-46.295396 3.977591-17.894555 3.009544-38.315654-2.891863-61.238736 25.603121-35.246759 46.070268-71.579245 59.468416-109.304452 14.258749-40.157605 20.537755-81.872682 16.619516-125.617999-1.239224-26.511817-8.617261-42.943045-20.397562-52.03205-12.784164-9.845229-28.707832-10.340509-46.566572-4.957919l-2.077312 0.636496-1.807159 1.157359c-6.550183 4.226255-13.302981 10.906397-20.597107 20.87033l-0.023536-0.023536c-1.428535 1.959631-2.879584 4.036943-4.368494 6.302543-4.590552-11.70867-9.79611-22.426779-15.568581-32.223912-6.198166-10.506285-13.020548-19.948331-20.408819-28.447912 6.244214-2.479471 12.181437-5.241374 17.753339-8.357342 13.149485-7.317663 24.185842-16.525372 32.284287-28.282137 8.911974-11.143805 12.783141-22.405289 12.783141-33.429367 0-9.466606-2.879584-18.414395-7.825222-26.629497-4.473895-7.364735-10.719132-14.164604-18.060331-20.208251-21.825075-17.941628-54.982242-29.627784-78.685084-29.981848l0 0C651.069871-47.303097 618.326119-34.271292 589.618287-22.821519zM535.167141 19.886165c31.740912-0.89744 47.959292-7.365758 65.665559-14.400988 25.66145-10.221806 54.923914-21.86089 156.980287-15.014972l1.01512 0c17.764596 0 43.343157 9.06547 60.353576 23.041786 4.686742 3.848655 8.593725 8.05035 11.249205 12.441357 2.148943 3.564175 3.399423 7.248078 3.399423 10.859325 0 4.486174-1.923816 9.466606-6.374174 14.872732l-0.590448 0.732687-0.24764 0.354064c-5.26491 7.719822-12.854772 13.975293-22.084994 19.122523-9.986445 5.571902-22.01541 9.914814-35.293831 13.481036l-28.010961 7.506974 22.037922 18.839067c12.287861 10.481725 23.230074 23.324218 32.461319 39.023782 9.419534 15.98302 17.174148 35.105542 22.946618 57.886385l9.809413 38.669718 18.497283-35.317367c7.436366-14.18814 13.857613-24.859177 19.570731-32.69668l0-0.048095c4.155646-5.689582 7.707542-9.56075 10.871605-11.993149 7.577582-2.029216 13.514805-2.196015 16.950044 0.448208 4.720511 3.635807 7.801686 12.725836 8.569166 29.29828l0.059352 0.707105c3.612271 39.260166-2.066055 76.939323-15.002692 113.364931-13.102413 36.875862-33.675984 72.523757-59.597353 107.297748l-4.533246 6.090718 2.159176 7.29515c6.208399 20.986987 7.68503 38.810934 4.439102 53.448306-3.009544 13.550621-10.329253 24.693402-21.907962 33.428344l-6.138814 4.603855 0.048095 7.649214c0.3776 78.945003-22.474874 144.598282-70.671573 189.972703-45.456285 42.777269-113.954355 68.13275-207.336162 70.352301-76.843132 1.251503-137.550773-23.206538-181.438329-65.300238-47.829332-45.893236-76.264964-112.987331-84.410482-190.893678l-1.00284-9.655917-9.089006-3.187599c-2.561335-0.919952-4.367471-3.753487-5.783727-7.577582-2.302439-6.256494-3.458775-15.014972-4.544503-23.914666l-0.460488-3.777023-2.360767-3.258207c-4.981455-6.941086-7.743358-15.652492-9.18315-25.330922-1.641383-10.883885-1.663896-22.805402-1.286296-34.963303l0.25992-7.766894-6.220678-4.768607c-36.119639-27.762297-64.945151-58.972113-82.911338-95.352695-17.717524-35.883255-24.929786-77.197196-18.165732-125.665071l-0.011256 0c1.475608-9.44307 3.375887-15.369036 5.760191-16.950044 0.802272-0.518816 3.588735 0.732687 8.664334 4.061502 7.459902 6.633071 14.57802 13.550621 20.692275 21.175275 5.937223 7.41283 10.954493 15.60542 14.412244 25.024953l14.802124 40.274262 13.999852-40.581254c9.573029-27.786857 21.212114-50.733475 34.574447-69.572542 13.196557-18.627243 28.152177-33.381271 44.500517-44.973284l34.692127-24.599258-42.446741-3.068895c-18.248619-1.298576-31.162744-6.067182-40.192398-13.362332-2.077312-1.677199-3.977591-3.518127-5.700839-5.477758l40.215934 12.323677-40.688701-42.35362c-0.590448-0.613984-1.038656-1.156336-1.345648-1.604544l0.01228 0c-0.236384-0.354064-0.436952-0.731664-0.601704-1.109264l-0.448208-1.086751-0.743944-1.179872c-1.086751-1.746784-1.971911-3.635807-2.620687-5.618974l0-0.047072-0.294712-0.944512c17.788132-19.358907 57.214073-31.469736 102.115726-36.120662 53.778834-5.570879 114.108874 0.095167 155.446351 17.139356l0 0c7.201006 3.068895 12.878309 5.736655 17.930371 8.097422C508.679883 17.737222 520.553305 23.308101 535.167141 19.886165z"  horiz-adv-x="1024" />

    
    <glyph glyph-name="dianhua" unicode="&#58991;" d="M865.066 215.634c-29.409 21.845-60.375 42.189-87.163 57.303-44.687 25.19-64.881 28.809-77.483 29.164-17.38 0.478-42.803-5.365-65.195-35.963-10.786-14.746-18.759-31.881-26.487-48.442-2.526-5.434-7.413-15.92-11.619-23.566-10.117 4.519-29.027 14.569-59.065 36.277-36.073 26.037-75.066 59.569-104.052 89.402-28.413 30.857-59.719 71.666-83.763 109.131-20.002 31.198-28.986 50.654-32.932 61.003 7.878 3.769 18.651 8.069 24.331 10.336 16.916 6.772 34.406 13.762 49.67 23.702 31.812 20.657 39.062 45.725 39.54 63.106 0.355 12.589-2.157 32.959-24.821 78.971-13.557 27.511-32.154 59.556-52.361 90.208-15.087 22.883-38.202 55.774-62.587 82.521-29.628 32.495-53.371 47.268-76.977 47.923-54.122 1.502-91.654-45.779-110.128-69.045-22.201-27.962-74.083-100.707-76.049-171.773-1.829-65.781 38.667-150.269 72.963-209.551 45.233-78.179 108.407-162.762 178.012-238.278l22.829-24.126c71.447-73.591 152.385-141.366 227.888-190.846 57.276-37.547 139.373-82.671 205.182-84.486 77.51-2.157 128.71 25.572 152.331 42.271 29.71 21.026 98.973 75.599 100.434 128.15 0.655 23.606-12.78 48.114-43.568 79.503-25.313 25.819-56.894 50.75-78.93 67.106zM871.333-36.816c-20.849-14.746-66.205-39.199-135.796-37.274-59.42 1.652-136.642 44.442-190.97 80.049-73.878 48.401-153.177 114.825-223.396 187.147l-22.323 23.62c-68.171 73.961-130.076 156.822-174.325 233.308-32.535 56.238-70.957 135.714-69.305 195.12 1.747 62.86 49.63 129.707 70.588 156.098 15.278 19.251 47.076 59.296 87.546 58.177 15.374-0.423 33.655-12.834 57.549-39.035 23.211-25.423 45.425-57.071 59.966-79.135 19.606-29.737 37.601-60.73 50.668-87.259 22.582-45.847 22.159-61.126 22.022-66.15-0.45-15.988-9.312-29.395-27.116-40.96-13.025-8.465-29.259-14.964-45.070-21.299-15.961-6.377-30.925-12.575-38.585-18.323l-6.909-5.216 1.761-8.479c1.611-7.796 8.71-31.143 39.635-79.366 24.835-38.735 57.235-80.924 86.903-113.146 30.283-31.17 70.628-65.85 107.916-92.774 46.421-33.559 69.345-41.93 77.033-43.978l8.369-2.225 5.584 6.622c6.172 7.318 13.175 21.914 20.439 37.492 7.154 15.374 14.555 31.252 23.771 43.827 12.533 17.135 26.405 25.245 42.394 24.809 5.024-0.137 20.303-0.56 64.826-25.668 25.833-14.569 55.774-34.242 84.295-55.433 21.259-15.783 51.637-39.745 75.708-64.279 24.835-25.313 36.195-44.265 35.772-59.625-0.942-32.891-46.558-76.663-88.951-106.646zM658.996 551.97c23.511-28.017 34.215-62.97 30.119-98.4l26.064-2.99c4.915 42.653-7.891 84.665-36.085 118.266-27.744 33.082-67.188 54.081-111.070 59.133l-2.99-26.064c37.178-4.301 70.547-22.022 93.963-49.943zM766.735 640.321c41.028-48.879 59.693-109.827 52.565-171.609l26.064-3.004c7.959 69.004-12.82 137.011-58.518 191.488-45.247 53.945-109.664 88.228-181.385 96.489l-3.004-26.064c65.018-7.509 123.372-38.489 164.277-87.299zM912.525 732.358c-70.779 84.364-171.595 137.967-283.893 150.91l-3.004-26.064c105.595-12.192 200.349-62.505 266.8-141.722 66.546-79.312 96.83-178.176 85.265-278.351l26.064-2.99c12.397 107.397-20.002 213.306-91.232 298.217z"  horiz-adv-x="1024" />

    
    <glyph glyph-name="xingbie" unicode="&#58971;" d="M662.673274 411.969114 662.673274 592.639852l88.620491-88.613115c2.338135-2.345511 5.406477-3.518267 8.482194-3.518267 3.068342 0 6.144059 1.16538 8.48957 3.518267 4.691022 4.691022 4.691022 12.288118 0 16.97914L650.665437 638.598594l-117.570589-117.585341c-4.698398-4.691022-4.698398-12.295494 0-16.97914 4.683646-4.691022 12.280742-4.691022 16.971764 0l88.598363 88.613115 0-180.670739c-72.445315-6.129307-129.563674-66.972456-129.563674-140.996197 0-78.065691 63.513196-141.578887 141.571511-141.578887 78.065691 0 141.601014 63.513196 141.586263 141.578887C792.2517 345.004034 735.125965 405.839806 662.673274 411.969114zM650.665437 153.409704c-64.818716 0-117.563213 52.737121-117.563213 117.563213 0 64.833468 52.744497 117.585341 117.563213 117.585341 64.833468 0 117.585341-52.751873 117.585341-117.585341C768.250778 206.154201 715.498905 153.409704 650.665437 153.409704zM487.689294 275.368906 385.342399 275.368906 385.342399 351.059583c72.467443 6.121932 129.593177 66.957704 129.593177 140.981445 0 78.065691-63.520572 141.586263-141.593638 141.586263s-141.586263-63.520572-141.586263-141.586263c0-74.023741 57.118359-134.852138 129.578426-140.981445l0-75.683301L258.994583 275.376282c-6.623487 0-12.000461-5.384349-12.000461-12.007837 0-6.630863 5.376974-12.000461 12.000461-12.000461l102.339518 0 0-109.951366c0-6.638239 5.376974-12.015213 12.007837-12.015213 6.623487 0 12.000461 5.376974 12.000461 12.015213L385.342399 251.367984 487.689294 251.367984c6.623487 0 12.007837 5.369598 12.007837 12.000461C499.69713 269.984557 494.320157 275.368906 487.689294 275.368906zM255.77135 492.033652c0 64.826092 52.729745 117.577965 117.570589 117.577965 64.833468 0 117.577965-52.751873 117.577965-117.577965 0-64.833468-52.744497-117.570589-117.577965-117.570589C308.501095 374.463063 255.77135 427.200184 255.77135 492.033652zM512.014752 896C229.233145 896 0 666.766855 0 383.985248c0-282.759479 229.233145-511.985248 512.014752-511.985248 282.759479 0 511.985248 229.225769 511.985248 511.985248C1024 666.766855 794.774231 896 512.014752 896zM512.014752-103.032845c-268.981445 0-487.032845 218.0514-487.032845 487.018094 0 268.981445 218.0514 487.032845 487.032845 487.032845 268.974069 0 487.018094-218.0514 487.018094-487.032845C999.032845 115.011179 780.988821-103.032845 512.014752-103.032845z"  horiz-adv-x="1024" />

    
    <glyph glyph-name="youxiang" unicode="&#58915;" d="M830.455808 578.574336c9.168896 6.85056 22.183936 4.583424 28.29312-3.844096 6.873088-9.168896 4.585472-22.181888-4.583424-28.291072L529.94048 310.933504c-7.63904-5.347328-16.807936-4.585472-23.709696 0L181.266432 546.43712c-9.168896 6.111232-10.696704 19.122176-4.583424 28.291072 6.90176 8.42752 19.124224 10.694656 28.291072 3.844096l312.743936-226.33472L830.455808 578.574336zM171.33568 719.245312l692.760576 0c22.943744 0 43.595776-9.168896 58.116096-24.446976 14.5408-14.5408 23.7056-35.19488 23.7056-57.37472l0-516.134912c0-22.153216-9.166848-42.805248-23.7056-58.109952l0 0 0 0 0 0c-15.282176-14.518272-35.172352-23.683072-58.116096-23.683072L171.33568 39.49568c-22.183936 0-42.809344 9.166848-57.348096 23.683072-15.280128 15.304704-24.471552 35.190784-24.471552 58.109952L89.516032 637.425664c0 22.17984 9.191424 42.83392 24.471552 57.37472l0 0C128.526336 710.078464 149.153792 719.245312 171.33568 719.245312L171.33568 719.245312zM864.096256 678.729728 171.33568 678.729728c-11.460608 0-21.417984-4.583424-29.057024-12.222464l0 0c-7.63904-7.63904-12.224512-17.598464-12.224512-29.0816l0-516.134912c0-11.45856 4.585472-22.153216 12.224512-29.054976 7.63904-7.641088 17.596416-12.222464 29.057024-12.222464l692.760576 0c11.485184 0 22.181888 4.579328 29.822976 12.222464l0 0c6.873088 6.899712 11.483136 17.596416 11.483136 29.054976L905.402368 637.425664c0 11.483136-4.610048 21.44256-11.483136 29.0816C886.278144 674.146304 875.58144 678.729728 864.096256 678.729728L864.096256 678.729728zM506.230784 310.933504c-2.265088 1.527808-3.792896 3.055616-4.583424 4.583424"  horiz-adv-x="1024" />

    
    <glyph glyph-name="fanhui1" unicode="&#58901;" d="M468.1 575.7V737.3c0.9 8.1-1.3 16.4-7.5 22.7-10.9 10.8-28.4 10.8-39.3 0L147.6 459.9c-5.8-5.7-8.3-13.4-7.9-20.9-0.4-7.5 2.1-15.1 7.9-20.9l272.2-298.4c10.2-8.7 28.8-13.6 40.8-1.6 6.2 6.2 8.9 11.4 8 19.5V302c180.8 0 344.4-130.2 376.8-301.6 21.9 50.2 34.1 105.6 34.1 163.9 0.1 227.2-184.1 411.4-411.4 411.4z"  horiz-adv-x="1024" />

    
    <glyph glyph-name="paixu" unicode="&#58893;" d="M403.31503511 799.62798461l-18.71759708 0c-10.33337465 0-18.71043145-8.6977359-18.71043146-19.40911775l0-613.74121742c-53.72351888 73.61634038-124.31222399 132.01388395-205.83983083 167.41572633l0-65.76240206c92.55429317-46.29416516 167.92809559-126.18613327 212.94850543-225.33135718 1.30421189 0.74526373 2.40419338 1.39737116 3.54537916 2.06739193 2.46331397-1.23971817 5.13444046-2.06739194 8.0563777-2.06739193l18.71759708 0c10.33337465 0 18.71043145 8.68519421 18.71043145 19.40911776L422.02546805 780.21886686C422.02546805 790.93024871 413.64841123 799.62798461 403.31503511 799.62798461zM703.91449668 741.40421638c-1.30421189-0.74526373-2.40419338-1.39737116-3.54537914-2.06201732-2.45614688 1.23434355-5.12906585 2.06201734-8.04562849 2.06201732l-18.71043146 0c-10.33337465 0-18.71759711-8.6977359-18.7175971-19.41449086l0-717.9958013c0-10.72392208 8.38422244-19.40911775 18.7175971-19.40911776l18.71043146 0c10.33337465 0 18.71043145 8.68519421 18.71043144 19.40911776L711.03392049 617.7333491300001c53.71814429-73.61634038 124.3050569-132.01388395 205.83983083-167.41572633l0 65.75702746C824.31408355 562.3616512599999 748.94028112 642.26436709 703.91449668 741.40421638z"  horiz-adv-x="1024" />

    
    <glyph glyph-name="tiezi1" unicode="&#58936;" d="M880.632427 830.242592 143.364495 830.242592c-42.877929 0-77.607182-34.74864-77.607182-77.607182l0-737.268132c0-42.858542 34.729254-77.607182 77.607182-77.607182l737.267932 0c42.858542 0 77.607182 34.74864 77.607182 77.607182L958.23961 752.635409C958.23961 795.493951 923.490969 830.242592 880.632427 830.242592zM919.436118 15.367477c0-21.400091-17.4034-38.803491-38.803691-38.803491L143.364495-23.436014c-21.400091 0-38.803491 17.4034-38.803491 38.803491L104.561004 752.635409c0 21.400091 17.4034 38.803491 38.803491 38.803491l737.267932 0c21.400291 0 38.803691-17.4034 38.803691-38.803491L919.436118 15.367477zM779.762617 616.82289 244.273079 616.82289c-10.709739 0-19.401846-8.692107-19.401846-19.401846s8.692107-19.401846 19.401846-19.401846l535.489338 0c10.709739 0 19.401846 8.692107 19.401846 19.401846S790.472356 616.82289 779.762617 616.82289zM779.762617 403.403189 244.273079 403.403189c-10.709739 0-19.401846-8.692107-19.401846-19.401846s8.692107-19.401846 19.401846-19.401846l535.489338 0c10.709739 0 19.401846 8.692107 19.401846 19.401846C799.164263 394.711282 790.472356 403.403189 779.762617 403.403189zM779.762617 189.983487 244.273079 189.983487c-10.709739 0-19.401846-8.692107-19.401846-19.401846 0-10.709739 8.692107-19.401846 19.401846-19.401846l535.489338 0c10.709739 0 19.401846 8.692107 19.401846 19.401846C799.164263 181.29158 790.472356 189.983487 779.762617 189.983487z"  horiz-adv-x="1024" />

    
    <glyph glyph-name="zhuanfa" unicode="&#58892;" d="M912.961044 412.440749 582.76674 748.638791c-5.459339 5.558599-14.910595 1.692548-14.910595-6.097882l0-179.800016c-198.893886 0-449.227328-90.777493-462.274482-522.754948-0.196475-6.488785 8.726755-8.362458 11.18269-2.353604C216.929658 282.715199 543.382754 256.328225 567.856146 256.328225l0-186.187493c0-7.79043 9.451256-11.655458 14.910595-6.097882l330.194304 336.202135C916.285766 403.631106 916.285766 409.055652 912.961044 412.440749zM591.062684 105.607502 591.062684 279.53374 567.857169 279.53374c-0.955768 0-3.416819 0.088004-6.02318 0.181125-6.785543 0.242524-18.142196 0.647753-32.485879 0.647753-110.075001 0-294.523897-23.047926-395.275555-163.439396 16.141632 147.580197 65.807798 257.999029 148.095943 328.84661 38.743396 33.356712 85.160565 58.181097 137.961118 73.783447 44.870953 13.260002 94.573959 19.9821 147.727553 19.9821l23.205515 0L591.062684 707.075163l295.361985-300.732296L591.062684 105.607502z"  horiz-adv-x="1024" />

    
    <glyph glyph-name="hua" unicode="&#58896;" d="M805.427568 49.605515a486.523334 486.523334 0 0 1-115.714095-49.683414c-61.950772-36.758072-94.496928-74.725688-95.851781-76.325111l29.635882-25.176326c0.299828 0.350993 30.599834 35.428801 87.454556 68.882626 52.130131 30.676581 138.076338 66.303903 251.529956 61.797277l1.542118 38.856866c-54.566616 2.16224-107.927781-4.010325-158.596636-18.351918zM369.157628-0.077899A486.504914 486.504914 0 0 1 253.443533 49.605515c-50.671924 14.342617-104.034113 20.514158-158.594589 18.353965l1.541094-38.856867c113.434175 4.50151 199.397778-31.121718 251.529956-61.797276 56.854722-33.453826 87.154728-68.534704 87.453533-68.882627l29.635882 25.176327c-1.355877 1.596353-33.901009 39.564992-95.851781 76.323064zM696.300475 141.463343c50.14083 25.316519 95.108863 61.488239 133.656692 107.505157 38.336005 45.765186 68.412931 98.997415 89.395762 158.218014 21.659234 61.132129 32.6403 126.03513 32.6403 192.90492l0.004093 6.744591c0.024559 28.550157 0.052188 58.072453-3.61533 82.673683-1.919717 12.885433-7.764824 52.097386-38.849703 59.764996l-2.354621 0.581236-2.425228-0.015349c-36.922824-0.233313-82.078121-7.481369-127.150531-20.408758-36.281212-10.40597-69.180408-23.582021-94.991183-37.917474-47.360515 90.688193-94.202216 139.873258-132.315141 179.895667L531.574254 891.103495l-16.000368-16.386154c-37.882682-38.781142-88.903553-91.019744-139.446541-183.552952-58.104175 33.325913-150.302764 58.794905-217.625877 58.794905h-7.477275l-5.550397-5.010092c-23.676165-21.370663-34.703279-67.400884-34.703279-144.859815 0-66.86979 10.982089-131.772791 32.642347-192.90492 20.981807-59.220599 51.058733-112.453851 89.395761-158.218013 38.546806-46.017942 83.515862-82.186591 133.657715-107.505157 45.677182-23.064229 93.869643-36.177859 143.545894-39.09632v-230.361907h38.885519V102.169527c51.03929 2.451834 100.544649 15.634025 147.402722 39.293816zM149.65706 600.09041c0 70.123894 9.608816 98.971832 17.530205 110.829869 66.608847-2.316758 158.366392-30.354241 205.090414-63.284135l18.261868-12.871107 10.225868 19.863337c46.09162 89.529814 91.950949 140.596734 130.44966 180.410389 37.174556-39.292794 81.810015-89.501162 126.112901-179.659284l9.867712-20.077208 18.506437 12.567186c48.756301 33.108973 146.291416 61.534287 215.271256 63.02831 1.735522-1.747802 6.08456-7.900923 8.949809-27.121627 3.238754-21.732912 3.215218-49.781651 3.190659-76.906346l-0.005116-6.77836c0-253.348366-171.241592-459.463106-381.724813-459.463106-210.485268-0.001023-381.72686 206.113717-381.72686 459.462082z"  horiz-adv-x="1024" />

    
    <glyph glyph-name="gengduo" unicode="&#58943;" d="M128 480c-52.8 0-96-43.2-96-96s43.2-96 96-96 96 43.2 96 96-43.2 96-96 96z m768 0c-52.8 0-96-43.2-96-96s43.2-96 96-96 96 43.2 96 96-43.2 96-96 96z m-384 0c-52.8 0-96-43.2-96-96s43.2-96 96-96 96 43.2 96 96-43.2 96-96 96z"  horiz-adv-x="1024" />

    
    <glyph glyph-name="fuwubaozhang" unicode="&#58891;" d="M514.149111-116.53807700000004c-67.441135 0-132.937837 13.201679-194.545673 39.298021-59.561063 25.175295-112.981811 61.198481-158.829502 107.148511S78.80072 129.17689399999995 53.625425 188.73795700000005C27.529083 250.34579299999996 14.327404 315.842495 14.327404 383.28363c0 67.441135 13.201679 132.937837 39.298021 194.545673C78.80072 637.390366 114.823906 690.811113 160.671597 736.761143S260.042375 818.632021 319.603438 843.807316c61.607835 26.096342 127.104537 39.298021 194.545673 39.298021 67.441135 0 132.937837-13.201679 194.545673-39.298021 59.561063-25.175295 112.981811-61.198481 158.829502-107.148511s81.973216-99.370778 107.148511-158.829502c26.096342-61.607835 39.298021-127.104537 39.298021-194.545673 0-67.441135-13.201679-132.937837-39.298021-194.545673-25.175295-59.561063-61.198481-112.981811-107.148511-158.829502S768.255846-52.064760999999976 708.694783-77.24005599999998C647.086948-103.33639800000003 581.590246-116.53807700000004 514.149111-116.53807700000004zM514.149111 858.544074c-64.1663 0-126.388167-12.587647-185.028183-37.353588-56.593244-23.947232-107.455527-58.230662-151.051769-101.826904-43.698581-43.698581-77.879672-94.458525-101.826904-151.051769C51.476314 509.671797 38.888667 447.44993 38.888667 383.28363s12.587647-126.388167 37.353588-185.028183c23.947232-56.593244 58.230662-107.455527 101.826904-151.051769 43.698581-43.698581 94.458525-77.879672 151.051769-101.826904 58.537677-24.76594 120.861883-37.353588 185.028183-37.353588s126.388167 12.587647 185.028183 37.353588c56.593244 23.947232 107.455527 58.230662 151.051769 101.826904 43.698581 43.698581 77.879672 94.458525 101.826904 151.051769 24.76594 58.537677 37.353588 120.861883 37.353588 185.028183s-12.587647 126.388167-37.353588 185.028183c-23.947232 56.593244-58.230662 107.455527-101.826904 151.051769-43.698581 43.698581-94.458525 77.879672-151.051769 101.826904C640.537278 845.956426 578.315411 858.544074 514.149111 858.544074zM707.262043 554.803118c-68.669198 2.967819-132.528483 27.631421-188.098341 67.031781l-5.11693 3.581851-5.014591-3.581851c-55.569858-39.40036-119.326804-64.063962-188.098341-67.031781l-10.131521 0 0-161.490306c0-119.122127 82.587248-224.428543 200.993004-251.752948l2.763142-0.409354 1.944433 0.409354c118.303418 27.324405 200.890666 132.73316 200.890666 251.752948L717.393564 554.803118 707.262043 554.803118 707.262043 554.803118zM514.149111 595.226864c53.21607-36.43254 111.958425-54.955827 176.431741-60.072756l0-155.145313c-14.941435-175.817709-174.999001-211.738557-177.659804-212.352588l0 0.511693c0 0-160.364581 35.102139-175.408355 212.352588L337.512692 535.154108c0.921047 0.102339 1.944433 0.102339 2.865481 0.204677C403.828103 540.78273 461.64941 559.306016 514.149111 595.226864L514.149111 595.226864zM396.05037 390.959025l82.38257-85.35039 0.409354 0c2.865481-5.730961 8.801119-9.619828 15.657805-9.619828 6.856686 0 12.792325 3.888867 15.657805 9.619828l0.204677 0 123.932041 131.505097c4.605237 2.660804 7.675395 7.573056 7.675395 13.201679 0 8.391765-6.856686 15.248451-15.248451 15.248451-6.242654 0-11.564261-3.786528-13.918049-9.108135L494.704777 330.988607c-0.102339 0-0.102339 0-0.204677 0-0.409354 0-0.71637 0-1.125725 0l-76.651609 80.438137c-2.558465 4.809914-7.675395 8.187088-13.508695 8.187088-8.391765 0-15.248451-6.856686-15.248451-15.248451C388.067959 398.532081 391.240456 393.51749 396.05037 390.959025L396.05037 390.959025z"  horiz-adv-x="1024" />

    
    <glyph glyph-name="qian" unicode="&#58908;" d="M512-117.73636127999998c-276.4331528 0-501.32261873 224.8963416-501.32261873 501.32261872S235.5668472 884.90887505 512 884.90887505 1013.32261873 660.01253345 1013.32261873 383.58625631999996 788.4331528-117.73636127999998 512-117.73636127999998zM512 855.00475744c-259.94073168 0-471.41735424-211.47776832-471.41735424-471.41735423s211.47776832-471.41735424 471.41735424-471.41735425 471.41735424 211.47776832 471.41735424 471.41735425S771.94073168 855.00475744 512 855.00475744zM527.11251392 386.91568592l125.18080176 0 0-30.28347841-135.60689969 0 0-89.50834703 135.60689969 0 0-30.2834784-135.60689969 0 0-120.80039665-33.64958239 0L483.03683248 236.83809054999995 348.1026944 236.83809054999995l0 30.28347841 134.93528384 0 0 89.50834704L348.1026944 356.629916l0 30.28347839 124.16650064 0L335.31104 637.27728943l37.0156864 0 111.71753041-207.95808655c8.97283968-16.38354144 14.57957536-28.04972352 16.8213528-35.00083776l2.02287119 0c4.7093368 16.14973696 9.87138432 28.26862864 15.47811999 36.34407056l113.06190897 206.61485375 35.00083777 0L527.11251392 386.91568592z"  horiz-adv-x="1024" />

    
    <glyph glyph-name="anshijianduanduizhang" unicode="&#58930;" d="M512.54444828 858.94038672c127.66178002 0 247.15683576-49.18182836 336.45769707-138.48268965a474.03297292 474.03297292 0 0 0-1.13426726-671.58830143l-0.11342673-0.10208406-0.10208406-0.11342672C758.7598422-41.350222160000044 639.32149981-90.94038671999999 511.2967543-90.94038671999999c-127.62775201 0-247.08877971 49.15914302-336.38964104 138.38060561A474.77024664 474.77024664 0 0 0 36.36771025 384 473.78343412 473.78343412 0 0 0 176.03003786 720.38964102 474.75890395 474.75890395 0 0 0 512.54444828 858.94038672m0 31.75948327c-135.36345469 0-262.01573685-52.17629391-358.91618879-147.7836812C58.00952957 647.28611618 4.608227 519.37479737 4.608227 384s52.17629391-262.01573685 147.78368118-358.91618879c95.61872996-95.61872996 223.49602073-147.7836812 358.90484612-147.7836812s263.28611618 52.17629391 358.91618879 149.03137518C1068.92522421 223.79609231999996 1068.92522421 545.45160167 871.46063708 742.91618879 775.83056446 838.53491874 647.91924566 890.69986999 512.54444828 890.69986999zM754.64245205 163.45307413a15.81168558 15.81168558 0 0 0-10.20840531 3.73173932l-242.73319346 204.5424148a15.87974163 15.87974163 0 0 0-5.67133628 12.14800235V716.9301259a15.87974163 15.87974163 0 1 0 31.75948325 0V391.25931045l237.06185715-199.78983501a15.87974163 15.87974163 0 0 0-10.20840535-28.02774398z"  horiz-adv-x="1024" />

    
    <glyph glyph-name="pinzhibaozhang" unicode="&#58993;" d="M512-120.25627705C233.08615971-120.25627705 6.98181818 105.84806447999995 6.98181818 384.76190477 6.98181818 663.67574506 233.08615971 889.78008659 512 889.78008659 790.91384029 889.78008659 1017.01818182 663.67574506 1017.01818182 384.76190477 1017.01818182 105.84806447999995 790.91384029-120.25627705 512-120.25627705ZM512-95.00536795999994C776.96814196-95.00536795999994 991.76727273 119.79376280999998 991.76727273 384.76190477 991.76727273 649.73004673 776.96814196 864.5291775 512 864.5291775 247.03185804 864.5291775 32.23272727 649.73004673 32.23272727 384.76190477 32.23272727 119.79376280999998 247.03185804-95.00536795999994 512-95.00536795999994ZM277.34600347 381.69846448L259.49090909 363.8433701 438.04180453 185.29247466000004 451.03890216 182.22903437000002 812.47306647 543.6631740299999 794.61797209 561.51826841 446.072073 212.97236929999997 277.34600347 381.69846448Z"  horiz-adv-x="1024" />

    
    <glyph glyph-name="shizhuangyufuzhuang-" unicode="&#60320;" d="M803-68.25H221c-8.25 0-15 6.75-15 15V777.75c0 6.75 4.5 12.75 11.25 14.25l169.5 43.5c1.5 0 2.25 0.75 3.75 0.75h243c1.5 0 2.25 0 3.75-0.75l169.5-43.5c6.75-1.5 11.25-7.5 11.25-14.25v-830.25c0-9-6.75-15.75-15-15.75z m-567 30h552V765.75L632 806.25H392L236 766.5v-804.75zM803-68.25H221c-8.25 0-15 6.75-15 15V777.75c0 6.75 4.5 12.75 11.25 14.25l169.5 43.5c1.5 0 2.25 0.75 3.75 0.75h243c1.5 0 2.25 0 3.75-0.75l169.5-43.5c6.75-1.5 11.25-7.5 11.25-14.25v-830.25c0-9-6.75-15.75-15-15.75z m-567 30h552V765.75L632 806.25H392L236 766.5v-804.75zM855.5 450c-4.5 0-8.25 1.5-11.25 4.5l-52.5 56.25c-2.25 3-3.75 6.75-3.75 10.5V777.75c0 3.75 1.5 7.5 4.5 10.5 3 3 6.75 4.5 11.25 4.5 3.75 0 8.25-1.5 10.5-4.5L984.5 603c5.25-6 5.25-14.25 0-20.25l-117.75-127.5c-3-3-7.5-5.25-11.25-5.25z m-37.5 78l37.5-40.5 97.5 105.75-135 146.25v-211.5zM168.5 450c-4.5 0-8.25 1.5-11.25 4.5L39.5 582.75c-5.25 6-5.25 14.25 0 20.25l170.25 184.5c3 3 6.75 4.5 10.5 4.5 3.75 0 8.25-1.5 11.25-4.5 3-3 4.5-6.75 4.5-10.5v-255.75c0-3.75-1.5-7.5-3.75-10.5l-52.5-56.25c-3-2.25-6.75-4.5-11.25-4.5z m-97.5 143.25l97.5-105.75 37.5 40.5V739.5l-135-146.25zM512 682.5c-71.25 0-129 62.25-129 138.75 0 4.5 3 7.5 7.5 7.5h242.25c4.5 0 7.5-3 7.5-7.5 0.75-76.5-57-138.75-128.25-138.75zM398.75 813.75c3.75-64.5 53.25-116.25 113.25-116.25 60.75 0 110.25 51.75 113.25 116.25H398.75z"  horiz-adv-x="1024" />

    
    <glyph glyph-name="rssj" unicode="&#58975;" d="M509.663792 896c-280.384875 0-508.618996-228.234121-508.618996-508.618996 0-280.380782 228.234121-508.614903 508.618996-508.614903 280.509718 0 508.614903 228.234121 508.614903 508.614903C1018.278695 667.893792 790.17351 896 509.663792 896L509.663792 896zM509.663792-78.76873899999998c-257.044284 0-466.153836 209.109552-466.153836 466.149742 0 257.044284 209.109552 466.153836 466.153836 466.153836 257.164011 0 466.273563-209.109552 466.273563-466.153836C975.937354 130.34081300000003 766.703983-78.76873899999998 509.663792-78.76873899999998L509.663792-78.76873899999998zM509.663792-78.76873899999998M656.807037 701.296553l-283.118126 0c-25.450648 0-45.943378-19.495006-45.943378-43.462884l0-538.295899c0-23.839965 20.49273-43.458791 45.943378-43.458791l283.242969 0c25.454742 0 45.943378 19.618826 45.943378 43.458791L702.875259 657.956466C702.752462 681.924343 682.263825 701.296553 656.807037 701.296553L656.807037 701.296553 656.807037 701.296553 656.807037 701.296553 656.807037 701.296553zM508.294608 93.83436400000005c-12.665461 0-22.970154 9.810437-22.970154 21.853727 0 11.919471 10.180873 21.734 22.970154 21.734 12.666484 0 22.851451-9.809413 22.851451-21.734C531.269879 103.520981 520.961092 93.83436400000005 508.294608 93.83436400000005L508.294608 93.83436400000005 508.294608 93.83436400000005 508.294608 93.83436400000005 508.294608 93.83436400000005zM676.426887 156.29492800000003L353.946264 156.29492800000003l0 516.564969 322.480622 0L676.426887 156.29492800000003 676.426887 156.29492800000003zM676.426887 156.29492800000003"  horiz-adv-x="1024" />

    
    <glyph glyph-name="esdiannao" unicode="&#58994;" d="M990.03571733 686.46316978c0 36.06731413-29.24527253 65.299488-65.29730453 65.299488L99.26049707 751.76265778c-36.06731413 0-65.2983968-29.23108267-65.2983968-65.299488l0-516.5977152c0-36.05312427 29.23108267-65.2983968 65.2983968-65.2983968l825.47682346 0c36.052032 0 65.29730453 29.24527253 65.29730454 65.2983968L990.03462507 686.46316978zM960.61798293 164.95358471999998c0-19.76536427-16.10220053-30.96879253-35.8795712-30.96879254L99.26049707 133.98479218c-19.77955413 0-35.88175467 11.20342933-35.88175467 30.96879254l0 101.40937173 897.23814933 0L960.61689173 164.95358471999998zM960.61798293 295.78833138000005L63.3798336 295.78833138000005 63.3798336 681.56439858c0 19.77955413 16.10220053 40.77943467 35.88175467 40.77943467l825.47682346 0c19.77737067 0 35.8795712-20.99988053 35.8795712-40.77943467L960.61798293 295.78833138000005zM520.57448747 151.16323805000002c22.3086208 0 40.44870187 18.1269824 40.44870186 40.44979307 0 22.29333973-18.14008107 40.44979307-40.44870186 40.44979306s-40.44979307-18.15645333-40.44979307-40.44979306C480.1246944 169.29022045 498.26695787 151.16323805000002 520.57448747 151.16323805000002zM520.57448747 202.64399858000002c6.0754368 0 11.02987627-4.96972053 11.02987626-11.03096746 0-6.08962667-4.95443947-11.03096747-11.02987626-11.03096747s-11.03205973 4.9413408-11.03205974 11.03096747C509.54242773 197.67427805 514.49905067 202.64399858000002 520.57448747 202.64399858000002zM662.9652256-7.358080350000023c2.28347413-11.31913067 0.68875307-23.2691648-4.49599787-33.64085013l-0.97691626-1.98112107c-8.9494272-17.8693824-26.8744768-28.95820053-46.81230187-28.95820053L451.2385344-71.93825207999998c-19.93782507 0-37.86287467 11.0888192-46.798112 28.9298208-6.00448747 12.03626347-7.1669632 25.7403808-3.27458027 38.55272 5.3572128 17.6685408 12.53945813 58.83546773 12.29604694 65.44247786l8.12969066 0.31654294 20.67023894 5.17056106c3.04535893-12.12249493-9.4657184-67.99992533-12.9411392-79.46204586-1.7093312-5.6028064-1.19303893-11.60729387 1.45063893-16.89355734 3.8912928-7.784768 11.73500267-12.6398784 20.4683072-12.6398784l159.4425664 0c8.73221333 0 16.5759232 4.8551104 20.48358827 12.66825814l0.97691626 1.95383253c2.28347413 4.5680384 2.9744096 9.7964512 1.98221227 14.737792l-14.62209067 73.1704864 28.8424992 5.774176L662.9652256-7.358080350000023z"  horiz-adv-x="1024" />

    
    <glyph glyph-name="meirong-heicopy" unicode="&#58924;" d="M570.55569219-42.24395531000005c91.94752125 32.77473188 148.78905375 103.32954094 176.35273968 217.3554375A526.58982938 526.58982938 0 0 1 764.32429344 306.48467437v9.87355969c2.19412406 56.22443531-19.19858719 119.03124281-91.26185719 213.85855125l-19.40428687 25.43812875-11.45058563-30.58060781C621.29481594 469.67266875 555.53965344 427.91574094 457.14689281 399.04929281c-54.23601-15.90740156-100.44975281-24.20393344-173.33581875-34.14605906a145.01790188 145.01790188 0 0 1-14.67320625-3.01692094c-44.56815-10.83348844-45.80234438-62.66967469-29.48354531-145.56643312 24.61533188-158.73117937 82.27966125-216.53264062 212.55579094-257.80960407l-1.91985938-13.98754218H277.70866531c-86.942175 0-140.76678656 54.71597438-140.76678562 141.72671531V436.34940562c0 127.19064281 37.78007719 235.86836156 158.86831125 318.35372157 60.33841781 39.63136969 115.26009188 60.40698469 177.586935 67.88071968 195.68845969 20.22708375 366.14449125-118.75697719 401.31904593-298.67516906 6.03384188-33.87179344 9.05076281-60.88694906 9.05076282-87.55927219 0.41139844-7.26803625 1.02849562-18.10152563 1.64559281-32.91186468 2.33125687-58.14429375 2.39982375-119.9911725-1.37132813-177.72406688l-0.20569875-3.83971781c-2.26269094-30.8548725-4.93677938-58.28142656-7.95370031-82.27966031-5.75957625-46.83084-11.45058656-72.68036719-14.87890594-82.27966125-20.02138406-80.49693469-59.99558625-113.82019781-113.82019687-113.82019782H572.47555063l-1.91985844 14.26180782zM727.98410938 317.24959688v-10.69635657c0-38.53430813-5.34817781-79.33130625-16.18166626-121.1568-25.91809313-107.3749575-78.16567781-168.26190656-166.27348124-194.65996406l-15.42743626-4.59394781L540.93501406-96H747.1826975c70.28054344 0 124.65368625 45.39094594 148.30908844 141.10961812 3.97685062 10.69635563 10.28495719 39.49423687 16.45593187 89.20486594 3.08548687 24.75246469 5.82814219 52.86468187 8.1594 84.54235125l0.27426563 4.11398344a1778.6120025 1778.6120025 0 0 1-0.27426563 214.81848094c0 28.11221719-3.29118656 57.45862969-9.80499281 93.93594656C871.2878525 731.4591225 684.17019031 884.01932719 469.69454094 861.872385c-67.94928656-8.09083312-127.87630594-30.8548725-192.94580438-73.50316313C142.77002187 697.1073646899999 100.60169562 575.74486406 100.60169562 436.34940562v-350.09995687c0-109.43194875 70.62337594-181.15238625 177.10696969-181.15238625h204.19069219l10.83348844 82.21109438-15.49600219 4.52538093c-128.90480156 38.05434281-178.82112937 83.78812125-201.85943531 231.89151094-11.24488687 57.45862969-10.28495719 96.67860187 1.71415968 99.62695594 4.11398344 1.02849562 10.49065688 2.26269094 9.05076282 2.26269094 76.79434969 10.28495719 124.17372187 18.85575563 180.53528906 35.38025437 93.2502825 27.28942125 161.268135 66.02942812 195.27706219 121.08823406 52.79611594-74.18882719 67.67502094-122.18529656 66.02942718-164.83358718zM649.13276844 276.10976625c25.09529625 0 45.45951281-31.81480219 45.45951187-13.71327656 0 18.17009156-20.36421562 32.91186469-45.45951187 32.91186375-25.09529625 0-45.45951281-14.74177219-45.45951282-32.91186375 0-18.10152563 20.36421562 13.71327656 45.45951282 13.71327656z m-292.57276125 0c25.16386312 0 45.45951281-31.81480219 45.45951281-13.71327656 0 18.17009156-20.29564969 32.91186469-45.45951281 32.91186375-25.09529625 0-45.39094594-14.74177219-45.39094594-32.91186375 0-18.10152563 20.29564969 13.71327656 45.39094594 13.71327656z"  horiz-adv-x="1024" />

    
    <glyph glyph-name="chexiandingdan" unicode="&#59121;" d="M771.519-9.677c-44.453 0-84.826 25.349-104.47 64.332h-310.061c-19.597-38.983-60.019-64.332-104.51-64.332-50.231 0-94.451 32.015-110.654 78.909-50.43 24.789-80.917 78.043-76.652 135.411l9.247 123.106c3.958 52.845 35.516 99.78 83.153 124.714l38.823 182.569c16.746 78.652 95.781 142.644 176.196 142.644h278.859c80.414 0 159.462-63.991 176.17-142.678l38.81-182.535c47.601-24.894 79.161-71.834 83.155-124.708l9.245-123.112c4.267-57.407-26.222-110.622-76.638-135.411-16.144-46.934-60.327-78.909-110.672-78.909zM330.496 93.64h363.047l4.648-12.903c11.224-31.255 40.028-51.429 73.33-51.429 35.765 0 66.867 24.205 75.694 58.85l2.397 9.519 9.134 3.726c39.882 16.295 64.47 56.605 61.187 100.348l-9.245 123.11c-3.122 41.834-29.678 78.799-69.264 96.424l-9.097 4.037-42.845 201.569c-13.092 61.668-75.016 111.801-138.033 111.801h-278.859c-63.019 0-124.978-50.134-138.073-111.801l-42.843-201.569-9.097-4.037c-39.62-17.665-66.175-54.589-69.264-96.424l-9.245-123.11c-3.282-43.743 21.304-84.053 61.223-100.348l9.059-3.692 2.434-9.517c8.876-34.682 40.004-58.89 75.692-58.89 33.34 0 62.146 20.174 73.37 51.427l4.648 12.909zM735.241 175.523c-21.454 0-42.462 8.714-57.607 23.869-15.184 15.188-23.9 36.204-23.9 57.671s8.717 42.484 23.9 57.671c30.253 30.265 84.826 30.377 115.227 0.040 15.184-15.192 23.898-36.243 23.898-57.711s-8.714-42.519-23.86-57.671c-15.22-15.19-36.23-23.869-57.658-23.869zM735.241 299.626c-11.028 0-22.252-4.65-30.058-12.452-7.808-7.802-12.479-19.072-12.479-30.113s4.671-22.307 12.479-30.109c15.601-15.61 44.528-15.645 60.201 0.030 7.77 7.772 12.405 19.038 12.405 30.078s-4.635 22.311-12.44 30.113c-7.807 7.803-19.066 12.453-30.108 12.453zM288.744 175.523c-21.452 0-42.462 8.714-57.607 23.869-15.182 15.188-23.898 36.204-23.898 57.671s8.717 42.484 23.898 57.671c30.255 30.265 84.826 30.377 115.229 0.040 15.182-15.192 23.898-36.243 23.898-57.711s-8.717-42.519-23.862-57.671c-15.22-15.19-36.23-23.869-57.658-23.869zM288.744 299.626c-11.028 0-22.252-4.65-30.058-12.452s-12.489-19.072-12.489-30.113 4.684-22.307 12.489-30.109c15.601-15.61 44.528-15.645 60.201 0.030 7.772 7.772 12.405 19.038 12.405 30.078s-4.633 22.311-12.44 30.113c-7.805 7.803-19.066 12.453-30.108 12.453zM702.135 393.65h-380.32c-15.98 0-30.058 6.284-39.61 17.665-9.095 10.463-13.056 25.499-10.621 40.992l0.921 4.195 32.947 143.552c5.68 30.985 36.697 56.909 68.921 56.909h275.22c32.27 0 63.238-25.924 69.065-57.784l33.034-143.557c3.122-19.183-0.875-33.992-10.587-45.033-8.79-10.623-23.099-16.94-38.971-16.94zM374.372 617.983c-13.622 0-28.266-12.296-30.746-25.85l-33.366-145.228c-0.81-4.68-0.16-8.3 1.585-10.319 2.779-3.311 6.935-3.954 9.97-3.954h380.32c4.118 0 7.659 1.254 9.332 3.237 2.998 3.422 2.777 7.991 2.397 10.427l-33.377 144.999c-2.63 14.39-17.271 26.686-30.906 26.686l-275.208 0.001z"  horiz-adv-x="1024" />

    
    <glyph glyph-name="jiaju" unicode="&#59430;" d="M308.8-128H188c-8.8 0-16 7.2-16 16V98.39999999999998c0 8.8 7.2 16 16 16s16-7.2 16-16V-96h93.6l39.2 116c3.2 8 12 12.8 20 9.6 8-3.2 12.8-12 9.6-20l-43.2-126.4c-1.6-7.2-8-11.2-14.4-11.2zM836-128H715.2c-7.2 0-12.8 4-15.2 11.2l-43.2 126.4c-3.2 8 1.6 17.6 9.6 20 8 3.2 17.6-1.6 20-9.6l39.2-116h93.6V98.39999999999998c0 8.8 7.2 16 16 16s16-7.2 16-16V-112c0.8-8.8-6.4-16-15.2-16zM512-25.600000000000023C237.6-25.600000000000023 14.4 168 4.8 413.6c0 8 5.6 15.2 13.6 16.8 8 0.8 16-4.8 17.6-12.8C68.8 263.20000000000005 273.6 146.39999999999998 512 146.39999999999998s443.2 116.8 476 271.2c1.6 8 9.6 13.6 17.6 12.8 8-0.8 14.4-8 13.6-16.8-9.6-245.6-232.8-439.2-507.2-439.2zM59.2 298.4C121.6 128 300.8 6.399999999999977 512 6.399999999999977c211.2 0 390.4 121.6 452.8 292-87.2-110.4-260-184-452.8-184s-365.6 74.4-452.8 184zM512 114.39999999999998C259.2 114.39999999999998 40.8 241.60000000000002 4.8 411.2v2.4c0 6.4-0.8 12-0.8 17.6C4 683.2 232 888 512 888s508-204.8 508-456.8c0-5.6 0-12-0.8-17.6v-2.4C983.2 242.39999999999998 764.8 114.39999999999998 512 114.39999999999998zM36.8 416.8C70.4 262.4 274.4 146.39999999999998 512 146.39999999999998s441.6 116 476 270.4v14.4C988 665.6 774.4 856 512 856S36 665.6 36 431.2c0-4.8 0-9.6 0.8-14.4zM512 216c-3.2 0-5.6 1.6-7.2 4-23.2 44.8-73.6 99.2-138.4 148.8-65.6 49.6-136.8 88.8-196 106.4-3.2 0.8-5.6 4-5.6 8 0 3.2 2.4 6.4 5.6 8 59.2 17.6 130.4 56 196 106.4 65.6 49.6 116 104 138.4 148.8 2.4 5.6 11.2 5.6 14.4 0 23.2-44.8 73.6-99.2 138.4-148.8 65.6-49.6 136.8-88.8 196-106.4 3.2-0.8 5.6-4 5.6-8 0-3.2-2.4-6.4-5.6-8-59.2-17.6-130.4-56-196-106.4-65.6-49.6-116-104-138.4-148.8-1.6-2.4-4-4-7.2-4zM197.6 482.4c56-20 119.2-56 178.4-100.8 60.8-46.4 109.6-97.6 136-141.6 26.4 44 75.2 94.4 136 141.6 58.4 44.8 122.4 80.8 178.4 100.8-56 20-119.2 56-178.4 100.8-60.8 46.4-109.6 97.6-136 141.6-26.4-44-75.2-94.4-136-141.6-59.2-44-122.4-80-178.4-100.8z"  horiz-adv-x="1024" />

    
    <glyph glyph-name="shebei" unicode="&#59081;" d="M305.98371555 745.784919h-45.8695111c-55.03203555 0-84.12501333-41.83836446-100.90154667-102.02112l-102.84259556-504.17777778a27.904 27.904 0 0 1-0.22755555-3.48387557c0-57.34513778 45.27559111-103.93713778 100.92657778-103.93713777h715.65880888c55.65553779 0 100.94819554 46.592 100.94819556 103.936 0 1.1423289-0.10467554 2.33699555-0.19797333 3.48501334l-95.17511111 504.17777778c-13.53955556 66.13105778-45.89340445 102.02112-100.89699556 102.02112h-101.74691556m-466.24312888-103.90755557c11.79648 31.88167111 22.74872889 52.18986667 50.69937777 52.18986667h517.29066667c27.92675555 0 40.76657778-19.31150222 49.83125333-52.16711111 0.29582223-1.14801778 0.64056889-1.67253333 1.09454223-3.53621333L898.61688889 262.74136341999997H131.20967111m741.51822222-178.85297777H157.06908445c-27.42613333 0-49.85400889 22.55075556-50.66979556 50.62314667l17.91886222 76.51100444H905.47768889l17.92000001-76.51100444c-0.79872-28.07239111-23.19132445-50.62314667-50.66979557-50.62314667zM634.78897778 123.51377232000004h31.40949333c12.04792889 0 21.85216 10.06023111 21.85215999 22.45063111 0 12.44956445-9.80423111 22.50410667-21.85215999 22.50410667H634.78897778c-12.0467911 0-21.79868445-10.06136889-21.79868445-22.50410667 0-12.39608889 9.75189333-22.45063113 21.79982222-22.45063111z m112.00512 10.35150223h16.91648c6.47168 0 11.75551999 5.42947556 11.75552 12.09344 0 6.67534222-5.27701333 12.15146667-11.75552 12.15146667h-16.91648c-6.47281778 0-11.75665778-5.47612445-11.75665778-12.15146667 0-6.66396445 5.27928889-12.09457778 11.75665778-12.09457778z m-238.46456889-10.35150223h31.38787556c12.04110222 0 21.79868445 10.06023111 21.79868444 22.45063111 0 12.44956445-9.75758222 22.50410667-21.79868444 22.50410667h-31.38787556c-12.06954667 0-21.82712889-10.06136889-21.82712889-22.50410667 0-12.39608889 9.75758222-22.45063113 21.82712889-22.45063111z m165.77991111 317.50826668c0-6.19178667-4.87537778-11.22531555-10.89991111-11.22531558H413.1271111c-6.02453333 0-10.89991113 5.02670222-10.8999111 11.22531558l7.68910222 35.63975109c0 6.19861333 4.87651555 11.22531555 10.89991111 11.22531556h234.67690667c6.07573334 0 10.95111111-5.02670222 10.95111111-11.22531556l7.66634667-35.63975109z"  horiz-adv-x="1024" />

    
    <glyph glyph-name="tuichu1" unicode="&#59336;" d="M512 388.928a32 32 0 0 0-32 32V864a32 32 0 0 0 64 0v-443.072a32 32 0 0 0-32-32zM512-128C242.88-128 23.936 90.944 23.936 360.064c0 165.76 84.224 318.912 225.344 409.6a32 32 0 1 0 34.624-53.824c-122.752-78.848-195.968-211.84-195.968-355.776A424.576 424.576 0 0 1 512-64a424.576 424.576 0 0 1 424.064 424.064c0 143.872-73.28 276.864-195.968 355.776a32 32 0 1 0 34.624 53.824c141.056-90.688 225.344-243.84 225.344-409.6C1000.064 90.944 781.12-128 512-128z"  horiz-adv-x="1024" />

    
    <glyph glyph-name="zan" unicode="&#58932;" d="M274.57921156-25.935823130000017c-4.99437375 0-9.93598312 2.21801625-13.24669875 6.45930094-5.70525188 7.30928437-4.40437406 17.85925125 2.90491032 23.56450313 32.60253563 25.44578812 102.10741125 25.951365 109.92706968 25.93889344l390.99826313 0c44.09938031 0 63.60967219 20.38234031 83.37611062 87.20679374l61.43386781 245.82181313c8.95744688 56.35219312-6.81330094 88.9489725-21.65731593 106.39090687-15.70647094 18.45500719-38.10728344 29.03951156-61.45785188 29.03951157l-151.37768625-0.55162594c-0.02014594 0-0.04125188 0-0.06043875 0-6.16382062 0-11.83261781 3.37786969-14.7672675 8.80107281-2.94328406 5.44143094-2.65548 12.06094312 0.74925188 17.22703969l62.00564062 94.07765531c23.00712094 45.66791719 25.28941406 87.74211094 6.7816425 125.07136125-13.63043813 27.49016156-34.048275 42.37542937-34.25069812 42.51741281-0.11224406 0.07962562-0.22352812 0.16021125-0.33481313 0.24175594-14.62816219 10.85408062-27.65996625 14.72889375-38.73277875 11.5160325-17.84390156-5.17473187-30.12357656-28.02835688-33.35082844-36.39676312-0.1659675-0.43938187-0.32905687-0.81736594-0.53148-1.24139813-29.22178781-61.3168275-65.28661594-112.98451687-107.19196406-153.57075937-33.80460094-32.73972281-71.44564031-58.36682719-111.87550875-76.17043688-66.23733094-29.16614531-118.05659719-27.69354375-124.65884156-27.36928406L156.45258125 502.63796344c-0.81736594-0.02686219-12.1789425-0.509415-22.7768775-6.703935-13.51435688-7.90024406-19.9669425-21.6045525-19.72518656-41.89287656 0.00095906-0.06715406 0.00095906-0.13335 0.00095906-0.20050407l0-376.35667031c0.71759344-20.46964125 8.00960906-34.99803094 21.67746281-43.18416094 10.11250406-6.05541469 20.1655275-6.67419469 20.26242188-6.67803187 0.03837375-0.00095906 0.0767475-0.00287812 0.11416219-0.00383719l26.30056781-1.128195-0.4537725 70.01429063c0 0.03645562 0 0.07195125 0 0.10840687L181.85232031 445.35520125c0 9.27211313 7.51650375 16.78861688 16.78861688 16.78861688s16.78861688-7.51650375 16.78861687-16.78861688l0-348.69958125 0.56793469-87.58381781c0.02973937-4.59624375-1.8256425-9.00349594-5.13443906-12.19429219-3.30879656-3.18983719-7.77744656-4.89076406-12.37273125-4.68834094l-43.87009594 1.88128406c-2.16429281 0.08538187-18.95099156 1.06871531-36.24134813 11.42393438-16.60730063 9.94557656-36.67785281 30.3653325-37.99408031 71.16742875-0.00575625 0.18035813-0.00863437 0.36167437-0.00863437 0.54107344L80.37616063 453.74471344c-0.2762925 24.83276344 6.91211344 44.87357531 21.36471468 59.56313625 21.77147906 22.12931625 51.20240438 22.89391781 54.48625875 22.90830843l123.49706907 0c0.3655125 0 0.73102406-0.0115125 1.0955775-0.03549562 0.4317075-0.02686219 49.03043719-2.54131688 111.31908562 25.331625 36.50229187 16.33484531 70.57359094 39.79381969 101.26893938 69.72552563 38.49006375 37.5335925 71.80635562 85.45502156 99.02502093 142.43654812 2.50869937 6.23769094 19.56113719 45.52209562 54.87479532 55.90033969 21.70816219 6.37871531 44.6567625 0.77515406 68.20111968-16.659105 2.83679625-2.04821156 27.83264906-20.73442219 44.76516938-54.88822594 16.21876406-32.71094156 28.1079825-86.33474531-7.35533344-156.03724687-0.28492688-0.55930125-0.60055313-1.10229281-0.94591875-1.62609751l-45.30336469-68.73643687 120.13071094 0.43746375c33.27216187 0 64.99209562-14.89102406 87.08879344-40.85390063 19.491105-22.90255219 40.36655156-64.77720094 29.12201531-134.20916624-0.07578844-0.465285-0.17172375-0.92865-0.28588594-1.38625969l-61.69577062-246.86750344c-0.05756063-0.22832531-0.11895938-0.45569063-0.18515438-0.68209781-20.33725125-68.90720063-46.78268156-111.614565-115.67932969-111.614565L374.11172844-3.548442189999946c-0.13047187 0-0.26190281 0.00095906-0.39333375 0.00095907-25.21170656 0-71.20772156-5.08455281-88.82137875-18.83299125C281.82997531-24.77501061999999 278.19020281-25.935823130000017 274.57921156-25.935823130000017zM242.38439938 477.12885844"  horiz-adv-x="1024" />

    
    <glyph glyph-name="chakan2" unicode="&#58880;" d="M943.273421 389.740748C906.84065 575.752232 724.900901 710.766228 510.685052 710.766228c-214.228129 0-396.154575-135.01502-432.589392-321.025481-0.529049-2.765997-0.529049-5.611811 0-8.376785C114.530476 195.33099 296.457946 60.314946 510.685052 60.314946c84.754313 0 166.926824 21.296025 237.682307 61.551868 10.854209 6.196119 14.542204 19.829628 8.197706 30.479175-6.341429 10.599406-20.225647 14.158465-31.172977 8.006348-63.754023-36.307927-138.010237-55.516408-214.709083-55.516408-190.771905 0-352.71932 117.805056-386.970402 280.715403 34.250058 162.89909 196.22101 280.690844 386.970402 280.690844 190.771905 0 352.71932-117.791753 386.969379-280.690844-12.098549-57.384965-41.084721-111.433952-84.026742-156.599617-8.574283-8.997931-8.032954-23.089881 1.174756-31.464619 9.184173-8.356318 23.608697-7.872295 32.207539 1.147126 49.846268 52.396347 83.111906 115.577319 96.265484 182.739974C943.813726 384.140193 943.813726 386.973728 943.273421 389.740748zM328.909032 380.517689c0-100.308567 81.792864-181.669596 182.689832-181.669596 100.872409 0 182.665273 81.362053 182.665273 181.669596 0.001023 100.307543-81.791841 181.634804-182.665273 181.634804l0 0C410.701896 562.152493 328.909032 480.825232 328.909032 380.517689zM648.616494 380.517689c0-75.237565-61.337997-136.257314-137.01763-136.257314l0 0c-75.67861 0-137.042189 61.018725-137.042189 136.257314 0 75.211982 61.362556 136.231731 137.042189 136.231731C587.277474 516.74942 648.616494 455.729671 648.616494 380.517689z"  horiz-adv-x="1024" />

    
    <glyph glyph-name="kongjian" unicode="&#58989;" d="M662.203733 329.952c11.485867 13.397333 0 22.971733 0 22.971733l-322.338133-3.84 241.032533-32.529067c0 0-184.593067-104.2432-198.946133-120.490667-14.353067-16.264533 0-29.661867 0-29.661867l292.932267 12.970667-0.682667 3.959467-194.679467 15.598933C479.522133 198.9312 650.734933 316.554667 662.203733 329.952zM512 812C229.2224 812 0 582.7776 0 300s229.2224-512 512-512 512 229.2224 512 512S794.7776 812 512 812zM674.2016 183.332267l32-2.56-31.317333-1.399467 30.276267-176.64L512 104.296533l-193.160533-101.563733 36.881067 215.125333-156.279467 152.337067 215.9616 31.368533L512 597.2672l96.597333-195.720533 215.9616-31.368533-156.279467-152.337067L674.2016 183.332267z"  horiz-adv-x="1024" />

    
    <glyph glyph-name="shoucang" unicode="&#59065;" d="M940.704 501.26933333c-32.192 98.368-227.68 109.92-244.672 110.72l-1.184 3.68c0 0-79.264 198.08-187.424 198.08-99.552 0-172.64-167.744-183.68-194.528L321.12 615.57333333c-16.896-1.088-212.48-15.936-244.64-114.304-34.176-104.608 125.376-236.064 130.112-239.776-0.608-2.24-53.056-205.984 34.208-268.928 87.264-62.976 265.952 49.792 267.872 50.976 1.888-1.184 180.608-113.952 267.84-50.976 87.744 63.328 34.176 268.96 34.176 268.96l0 0.096C814.976 264.85333333000005 976.064 393.10933333 940.704 501.26933333zM206.624 261.49333333000004c0 0.032 0 0.032-0.032 0.032L206.624 261.49333333000004 206.624 261.49333333000004zM764.896 278.06933332999995l4.8-11.456c0 0 60.736-183.328-18.208-240.352-78.528-56.672-241.056 61.6-242.752 62.72-1.728-1.12-166.048-117.472-244.576-60.768-78.528 56.672-10.112 245.216-9.6 247.264-4.256 3.328-169.536 118.176-138.752 212.32 28.928 88.576 213.536 91.872 228.736 92.864l2.4 3.328c9.92 24.064 72.16 193.952 161.792 193.952 97.376 0 160.544-198.272 160.544-198.272l1.088-3.296c15.264-0.736 206.336-0.032 235.296-88.576C937.472 390.45333333 768.736 281.01333333 764.896 278.06933332999995z"  horiz-adv-x="1024" />

    
    <glyph glyph-name="shouye" unicode="&#58914;" d="M514.7 792.6c0.9 0 3.6 0 5.4-1.8l371.7-371.7c-28.8-1.8-48.6-22.5-48.6-52.2l0-378c-2.7-7.2-7.2-12.6-9-13.5l-176.4 0c-2.7 0-8.1 5.4-9 8.1L648.8 195c0 30.6-21.6 52.2-52.2 52.2L429.2 247.20000000000005c-30.6 0-52.2-21.6-52.2-52.2l0-210.6c0-1.8 0-8.1-8.1-8.1l-177.3 0c-2.7 0-8.1 5.4-9 8.1L182.6 361.5c0 29.7-19.8 51.3-48.6 52.2L509.3 790.8C511.1 792.6 513.8 792.6 514.7 792.6M514.7 828.6C503.9 828.6 492.2 824.1 484.1 816l-410.4-410.4c-5.4-5.4-22.5-27.9 5.4-27.9l49.5 0c10.8 0 16.2-5.4 16.2-16.2l0-377.1c0-22.5 22.5-44.1 44.1-44.1L368-59.700000000000045c27.9 0 44.1 22.5 44.1 44.1L412.1 195c0 10.8 5.4 16.2 16.2 16.2l166.5 0c10.8 0 16.2-5.4 16.2-16.2l0-210.6c0-22.5 22.5-44.1 44.1-44.1l177.3 0c22.5 0 38.7 22.5 44.1 44.1L876.5 366.9c0 10.8 5.4 16.2 16.2 16.2l49.5 0c35.1 0 10.8 22.5 10.8 22.5L545.3 816C537.2 824.1 525.5 828.6 514.7 828.6L514.7 828.6z"  horiz-adv-x="1024" />

    
    <glyph glyph-name="huifu" unicode="&#59308;" d="M834.37778 179.86167l-85.74999 0c-11.879562 0-21.505803 9.657964-21.505803 21.441335 0 11.879562 9.625218 21.537526 21.505803 21.537526l85.74999 0c23.663956 0 42.97886 19.266809 42.97886 42.97886l0 429.788603c0 23.712051-19.314904 42.97886-42.97886 42.97886l-644.682905 0c-23.712051 0-42.97886-19.266809-42.97886-42.97886l0-429.788603c0-23.712051 19.266809-42.97886 42.97886-42.97886l365.224122 0c5.692652 0 11.17655-2.318812 15.173584-6.299473l193.46934-193.404871c8.394181-8.425903 8.394181-22.032806 0-30.379914-4.14132-4.204765-9.673313-6.347568-15.141862-6.347568-5.516644 0-11.048637 2.142803-15.189957 6.347568L546.029536 179.86167 189.694875 179.86167c-47.455825 0-86.005816 38.533618-86.005816 85.957721l0 429.788603c0 47.376007 38.549991 85.957721 86.005816 85.957721l644.682905 0c47.424102 0 85.957721-38.581714 85.957721-85.957721l0-429.788603C920.335501 218.395288 881.801882 179.86167 834.37778 179.86167L834.37778 179.86167zM318.631456 437.734832c-23.760147 0-42.97886 19.218714-42.97886 42.97886s19.218714 42.97886 42.97886 42.97886c23.712051 0 42.97886-19.218714 42.97886-42.97886S342.343507 437.734832 318.631456 437.734832L318.631456 437.734832zM512.004605 437.734832c-23.743774 0-42.97886 19.218714-42.97886 42.97886s19.235087 42.97886 42.97886 42.97886c23.760147 0 42.97886-19.218714 42.97886-42.97886S535.763728 437.734832 512.004605 437.734832L512.004605 437.734832zM705.441199 437.734832c-23.760147 0-42.97886 19.218714-42.97886 42.97886s19.218714 42.97886 42.97886 42.97886c23.712051 0 42.97886-19.218714 42.97886-42.97886S729.15325 437.734832 705.441199 437.734832L705.441199 437.734832z"  horiz-adv-x="1024" />

    
    <glyph glyph-name="zhuye" unicode="&#58918;" d="M1017.295 380.375c-8.919-9.058-23.377-9.058-32.296 0l-229.916 212.286c-1.513 1.206-2.808 2.525-3.989 4.057l-89.552 90.944c-1.513 1.2-2.808 2.513-3.989 4.051l-145.552 147.825-473.001-459.163c-8.919-9.058-23.377-9.058-32.294 0-8.919 9.058-8.919 23.74 0 32.798l486.36 472.733c0.77 1.13 1.235 2.394 2.224 3.406 4.604 4.677 10.676 6.83 16.711 6.682 6.033 0.147 12.105-2.005 16.709-6.682 0.989-1.012 1.454-2.275 2.224-3.406l121.376-123.263-0 62.189c0 0-0.002 0-0.002 0.006 0 13.115 10.471 23.752 23.385 23.752h93.539c6.459 0 12.306-2.66 16.537-6.953 4.233-4.299 6.85-10.242 6.85-16.799v-204.7l224.676-206.965c8.917-9.058 8.917-23.74-0-32.798zM745.851 801.092h-46.77v-85.96l46.77-47.491v133.451zM163.725 421.089c12.916 0 23.385-10.631 23.385-23.746v-430.349c0-26.236 20.94-47.498 46.77-47.498h161.194v287.846c0 13.121 10.471 23.752 23.385 23.752h187.080c12.916 0 23.385-10.631 23.385-23.752v-287.846h161.194c25.83 0 46.768 21.262 46.768 47.498l-0.002 430.349c0 13.115 10.469 23.746 23.385 23.746 12.914 0 23.385-10.631 23.385-23.746v-430.349c0-52.47-41.878-94.995-93.539-94.995l-556.237 0c-51.661 0-93.539 42.525-93.539 94.995l0 430.349c0 13.115 10.469 23.746 23.383 23.746zM582.154-80.502v264.1h-140.309v-264.1h140.309z"  horiz-adv-x="1024" />

    
    <glyph glyph-name="tuichu" unicode="&#58926;" d="M681.496345 710.638315l-18.171871 7.532557-21.438265-46.431495 19.671015-8.153704c135.777383-56.279794 223.51054-183.111434 223.51054-323.118142 0-194.468087-167.502945-352.678388-373.392152-352.678388-205.89023 0-373.393175 158.210301-373.393175 352.678388 0 140.108015 87.793532 266.949888 223.691665 323.192843l23.998577 9.445116-13.981433 21.087271L358.110097 716.875367l-15.930831-6.128581-0.873903-0.343831C186.640818 646.051321 86.703711 500.843148 86.703711 340.468554c0-54.628178 11.294231-107.624183 33.568537-157.515477 21.474081-48.099485 52.190663-91.27482 91.299379-128.326691 39.028898-36.977169 84.46267-66.001203 135.038556-86.266759 52.306296-20.959358 107.842147-31.587416 165.06543-31.587416s112.759133 10.628058 165.06543 31.587416c50.575886 20.266579 96.007611 49.290613 135.036509 86.266759 39.107693 37.050848 69.825298 80.225159 91.300402 128.326691 22.274306 49.892317 33.567513 102.887298 33.567513 157.515477C936.64342 501.092835 836.492442 646.393105 681.496345 710.638315zM480.975403 831.937962l61.398372 0 0-410.401044-61.398372 0 0 410.401044Z"  horiz-adv-x="1024" />

    
    <glyph glyph-name="jiantou" unicode="&#58974;" d="M960.184579 595.704656L513.47458401 139.763416 66.765613 595.704656 101.459786 631.143797 513.47458401 210.49229400000002 925.490406 631.143797Z"  horiz-adv-x="1024" />

    
    <glyph glyph-name="facebook" unicode="&#58881;" d="M503.149 852.515c-265.206 0-479.885-214.685-479.885-479.885s214.685-479.885 479.885-479.885c265.206 0 479.885 214.685 479.885 479.885 0 265.206-214.685 479.885-479.885 479.885zM631.931 375.149h-83.312v-300.556h-123.76v300.556h-63.151v103.536h63.151v63.151c0 83.312 35.363 133.841 133.841 133.841h83.312v-103.536h-50.525c-37.866 0-40.39-15.168-40.39-40.39v-50.525h93.426l-12.622-106.081z"  horiz-adv-x="1024" />

    
    <glyph glyph-name="xinwen" unicode="&#58929;" d="M857.031111 573.62963l-189.62963 193.042963c-3.602963 3.602963-8.438519 5.688889-13.558519 5.688889L225.754074 772.361481c-35.84 0-64.948148-29.108148-64.948148-64.948148l0-646.826667c0-35.84 29.108148-64.948148 64.948148-64.948148l571.828148 0c35.84 0 64.948148 29.108148 64.948148 64.948148L862.53037 560.355556C862.53037 565.285926 860.539259 570.121481 857.031111 573.62963zM676.219259 709.783704l128.18963-130.56L707.413333 579.223704c-17.256296 0-31.288889 14.032593-31.288889 31.288889L676.124444 709.783704zM828.871111 60.586667c0-17.256296-14.032593-31.288889-31.288889-31.288889L225.754074 29.297778c-17.256296 0-31.288889 14.032593-31.288889 31.288889L194.465185 707.413333c0 17.256296 14.032593 31.288889 31.288889 31.288889l416.805926 0 0-128.18963c0-35.84 29.108148-64.948148 64.948148-64.948148l121.362963 0L828.871111 60.586667zM307.958519 575.051852l157.677037 0c9.197037 0 16.687407 7.395556 16.877037 16.497778 0.18963 9.481481-7.86963 17.161481-17.256296 17.161481L307.958519 608.711111c-9.291852 0-16.877037-7.585185-16.877037-16.877037S298.666667 575.051852 307.958519 575.051852zM307.958519 489.244444l157.677037 0c9.197037 0 16.687407 7.395556 16.877037 16.497778 0.18963 9.481481-7.86963 17.161481-17.256296 17.161481L307.958519 522.903704c-9.291852 0-16.877037-7.585185-16.877037-16.877037S298.666667 489.244444 307.958519 489.244444zM307.958519 403.437037l157.677037 0c9.197037 0 16.687407 7.395556 16.877037 16.497778 0.18963 9.481481-7.86963 17.161481-17.256296 17.161481L307.958519 437.096296c-9.291852 0-16.877037-7.585185-16.877037-16.877037S298.666667 403.437037 307.958519 403.437037zM291.271111 287.478519c0-9.291852 7.585185-16.877037 16.877037-16.877037l407.04 0c9.197037 0 16.687407 7.395556 16.877037 16.497778 0.18963 9.481481-7.86963 17.161481-17.256296 17.161481L308.148148 304.260741C298.761481 304.260741 291.271111 296.77037 291.271111 287.478519zM714.714074 197.12 308.148148 197.12c-9.291852 0-16.877037-7.585185-16.877037-16.877037s7.585185-16.877037 16.877037-16.877037l407.04 0c9.197037 0 16.687407 7.395556 16.877037 16.497778C732.16 189.44 724.195556 197.12 714.714074 197.12z"  horiz-adv-x="1024" />

    
    <glyph glyph-name="fuzhilianjie" unicode="&#58963;" d="M511.99846507 860.4491744c-263.134448 0-476.44752854-213.31201492-476.44752854-476.44752853s213.31308053-476.44752854 476.44752854-476.44752854 476.44752854 213.31308053 476.44752853 476.44752854S775.13397867 860.4491744 511.99846507 860.4491744zM449.11715201 147.10071787000004c-47.96918401-47.96833066-126.01887893-47.96833066-174.02046722 0.0343232-47.96918401 47.96811732-47.96918401 126.01887893 2e-8 173.986144l123.26426666 123.26405333c47.96918401 47.96833066 126.01887893 47.96833066 174.0204672-0.0343232 1.29768-1.29768 2.5469664-2.62499307 3.77322881-3.9657376 0.71844587-0.59351787 1.416-1.22349014 2.08861011-1.895248 1.93895253-1.93895253 3.5417056-4.08192533 4.82723415-6.35750294 0.1554144-0.20295573 0.32020907-0.40122133 0.47349226-0.60396374-0.02963307-0.02771414-0.05990612-0.0562816-0.08953919-0.08293012 5.9027712-11.1369824 4.1667744-25.25988693-5.2111872-34.63699627-9.44746133-9.44746133-23.71149653-11.13506346-34.88664001-5.0719744-0.77472853-0.81757867-8.50132907 6.87960213-12.60713281 10.9843392l-0.03432319 0.0332576c-25.05224107 25.05224107-65.47006506 25.2524256-90.52443733 0.1999712l-123.46146667-123.46509121c-25.05224107-25.05224107-25.05224107-65.67110186 0-90.72355625l0.0343232-0.03432321c25.05224107-25.05224107 65.67110186-25.05224107 90.72355627 0l74.32592746 74.32592747c25.80032107-12.6661856 56.13410133-13.06911253 82.16402559-1.09962774L449.11715201 147.10071787000004zM748.900032 446.88274559l-123.26213547-123.26320106c-47.96918401-47.96811732-126.01887893-47.96811732-174.0204672 0.0343232-1.29682773 1.29789333-2.5469664 2.6252064-3.77237545 3.9657376-0.71844587 0.59351787-1.416 1.22242453-2.08861014 1.895248-1.93895253 1.93895253-3.5417056 4.08192533-4.82723413 6.35750293-0.1554144 0.20295573-0.32020907 0.401008-0.47455788 0.60502934 0.02941973 0.02771414 0.05990612 0.0562816 0.0895392 0.08293013-5.90298453 11.1369824-4.1667744 25.26010027 5.2111872 34.63699627 9.44746133 9.44746133 23.71170987 11.13506346 34.88664 5.0719744 0.77472853 0.81757867 8.50132907-6.87960213 12.6071328-10.98433921l0.0343232-0.03432319c25.05224107-25.05224107 65.47006506-25.2524256 90.52422506-0.20018453l123.46317227 123.46317226c25.05224107 25.05224107 25.05224107 65.67110186 0 90.72355627l-0.03432319 0.0343232c-25.05224107 25.05224107-65.67110186 25.05224107-90.72355628 0l-74.32592746-74.32592746c-25.71738987 12.58325546-56.13410133 13.06932587-82.1640256 1.09962773l114.85823254 114.85823253c47.96918401 47.96833066 126.01887893 47.96833066 174.0204672-0.03432319C796.86836373 572.9016245299999 796.86836373 494.85001067 748.900032 446.88274559z"  horiz-adv-x="1024" />

    
    <glyph glyph-name="biaoqing" unicode="&#58965;" d="M369.35 460.86c26.25000029 0 47.54999971 21.26999971 47.54999971 47.52 0 26.28-21.26999971 47.54999971-47.54999971 47.54999971-26.28 0-47.54999971-21.26999971-47.54999971-47.54999971C321.80000029 482.12999971 343.07 460.86 369.35 460.86zM654.67999971 460.86c26.25000029 0 47.58000029 21.26999971 47.58000029 47.52 0 26.28-21.33 47.54999971-47.58000029 47.54999971s-47.54999971-21.26999971-47.54999971-47.54999971C607.13 482.12999971 628.43000029 460.86 654.67999971 460.86zM512 822.27000029c-241.62000029 0-437.49-195.86999971-437.49-437.49 0-241.58999971 195.86999971-437.49 437.49-437.49s437.49 195.90000029 437.49 437.49C949.51999971 626.39999971 753.65 822.27000029 512 822.27000029zM512-14.670000289999962c-220.61999971 0-399.44999971 178.83-399.44999971 399.42C112.55000029 605.37000029 291.38000029 784.23 512 784.23s399.44999971-178.83 399.44999971-399.44999971C911.44999971 164.15999970999997 732.61999971-14.670000289999962 512-14.670000289999962zM721.27999971 384.74999971c-10.53 0-19.01999971-8.48999971-19.01999971-19.01999971 0-105.05999971-85.16999971-190.26-190.23000029-190.26-105.03 0-190.23000029 85.20000029-190.2300003 190.26 0 10.53-8.52000029 19.01999971-19.0199997 19.01999971s-19.01999971-8.48999971-19.01999971-19.01999971c0-126.02999971 102.21000029-228.24 228.26999971-228.24 126.06000029 0 228.24 102.21000029 228.24 228.24C740.24 376.26 731.75000029 384.74999971 721.27999971 384.74999971z"  horiz-adv-x="1024" />

    
    <glyph glyph-name="fangchan01" unicode="&#58976;" d="M939.175054 37.626062l-33.748257 529.155364 0-0.043267-333.739975 1.406177 0 0L538.025098 39.032239c-0.822073-13.758905-7.009253-25.592428-20.919593-24.813622-13.931973 0.800439-24.510753 12.67723-23.645413 26.501035l33.726624 547.024633c0.692272 13.282968 11.725356 23.580513 25.029957 23.580513L926.346389 611.324798c13.347868 0 24.337685-10.297545 25.224659-23.580513l33.618456-547.024633c0.908607-13.823805-9.713441-25.700596-23.62378-26.501035C947.612118 13.461444 939.997127 23.867157 939.175054 37.626062zM694.456923 604.834749 687.94524 729.054295l0 0L350.138167 727.53995l1.449444 0-33.661723-690.433092c-0.86534-17.523133-12.071492-27.323108-26.025098-26.2847-13.931973 1.038408-17.479866 14.169941-16.657794 31.671441l33.683357 709.384037c0.692272 16.765961 11.81189 29.81096 25.094858 29.81096l373.610513 0c13.282968 0 24.380952-13.066633 25.159758-29.81096l6.446782-143.300292c0.93024-17.436599-9.64854-32.515148-23.645413-33.553556C701.747412 574.050281 695.322263 587.268348 694.456923 604.834749zM187.562429 22.569147l875.334601 0c23.68868 0 42.877593-11.184519 42.877593-25.051591 0-13.758905-19.188913-25.051591-42.877593-25.051591L187.562429-27.534035c-23.645413 0-42.877593 11.271053-42.877593 25.051591C144.684835 11.384628 163.938649 22.569147 187.562429 22.569147zM100.660667-27.534035 92.959141-27.534035c-13.931973 0-25.224659 11.271053-25.224659 25.051591 0 13.867072 11.271053 25.051591 25.224659 25.051591l7.701525 0c13.996873 0 25.203025-11.184519 25.203025-25.051591C125.863692-16.241349 114.65754-27.534035 100.660667-27.534035zM638.837199 269.385727l-7.095787 0c-12.807031 0-23.25601 10.405713-23.25601 23.126209 0 12.74213 10.44898 23.061309 23.25601 23.061309l7.095787 0c12.871931 0 23.364178-10.319179 23.364178-23.061309C662.201377 279.79144 651.709131 269.385727 638.837199 269.385727zM395.936283 611.324798l141.223476 0c13.888706 0 25.203025-9.670174 25.203025-21.503697 0-11.920057-11.31432-21.676765-25.203025-21.676765l-141.223476 0c-13.931973 0-25.224659 9.778341-25.224659 21.676765C370.711624 601.676258 382.00431 611.324798 395.936283 611.324798zM385.119534 424.800777l141.223476 0c13.888706 0 25.203025-9.670174 25.203025-21.503697 0-11.920057-11.31432-21.676765-25.203025-21.676765l-141.223476 0c-13.931973 0-25.224659 9.778341-25.224659 21.676765C359.894875 415.130604 371.187561 424.800777 385.119534 424.800777zM705.836143 315.573245l141.223476 0c13.888706 0 25.203025-9.670174 25.203025-21.503697 0-11.920057-11.31432-21.676765-25.203025-21.676765l-141.223476 0c-13.931973 0-25.224659 9.778341-25.224659 21.676765C680.633118 305.903072 691.90417 315.573245 705.836143 315.573245zM839.682596 435.682427l7.095787 0c12.807031 0 23.25601 10.405713 23.25601 23.126209 0 12.74213-10.44898 23.061309-23.25601 23.061309l-7.095787 0c-12.871931 0-23.364178-10.319179-23.364178-23.061309C816.318418 446.109773 826.810665 435.682427 839.682596 435.682427zM772.662019 481.869945l-141.223476 0c-13.888706 0-25.203025-9.670174-25.203025-21.503697 0-11.920057 11.31432-21.676765 25.203025-21.676765l141.223476 0c13.931973 0 25.224659 9.778341 25.224659 21.676765C797.886678 472.221405 786.593992 481.869945 772.662019 481.869945zM841.910846 107.091224l7.095787 0c12.807031 0 23.25601 10.405713 23.25601 23.126209 0 12.74213-10.44898 23.061309-23.25601 23.061309l-7.095787 0c-12.871931 0-23.364178-10.319179-23.364178-23.061309C818.546668 117.496937 829.038915 107.091224 841.910846 107.091224zM774.890269 153.278743l-141.223476 0c-13.888706 0-25.203025-9.670174-25.203025-21.503697 0-11.920057 11.31432-21.676765 25.203025-21.676765l141.223476 0c13.931973 0 25.224659 9.778341 25.224659 21.676765C800.114928 143.608569 788.822242 153.278743 774.890269 153.278743zM371.598597 238.211856l141.223476 0c13.888706 0 25.203025-9.670174 25.203025-21.503697 0-11.920057-11.31432-21.676765-25.203025-21.676765l-141.223476 0c-13.931973 0-25.224659 9.778341-25.224659 21.676765C346.373938 228.541683 357.666624 238.211856 371.598597 238.211856z"  horiz-adv-x="1169" />

    
    <glyph glyph-name="ziliao" unicode="&#59048;" d="M888.32739922 58.98985987000003l-750.73717179 0c-41.43606679 0-75.56107412 34.12448086-75.56107411 75.56142568l0 531.36764297c0 41.4371206 34.1251831 75.56142569 75.56107411 75.56142568l748.30161622 0c41.43536367 0 75.56142569-34.12448086 75.56142569-75.56142568L961.45326934 134.55128555C963.88952714 90.67685243999995 929.76539786 58.98985987000003 888.32739922 58.98985987000003zM137.59022745 702.4786133800001c-19.50025518 0-36.56407675-17.06188887-36.56407677-36.55968486L101.02615068 134.55128555c0-19.49955293 17.06399737-36.56179337 36.56407677-36.56179336l748.3016162 0c19.49955293 0 36.56073955 17.06224043 36.56073955 36.56179336l0 531.36764297c0 19.49779599-17.06118662 36.55968487-36.56073955 36.55968486L137.59022745 702.4786133800001zM420.33497187 183.30104588999995l-170.62275497 1e-8c-34.1241293 0-68.24843438 19.50060674-68.24843438 60.93649775 0 38.9987543 31.68787148 53.62368222 53.62456026 65.81112188 24.37242099 12.18656162 31.68787148 17.06188887 31.68787148 31.68576299 0 7.31299131-7.31545049 19.50218789-17.06399736 34.126062-17.06013281 26.81148955-38.9998081 60.9372-38.99980811 114.56193604 0 75.56107412 51.18795088 126.74568779 121.87563047 126.74568779 70.68311191 0 121.87141435-53.62262842 121.87141436-126.74568779 0-56.06362969-21.9361623-90.18775898-38.99980811-114.56193604-9.74854688-12.18656162-17.06118662-24.37488018-17.06118663-34.126062 0-14.62387412 9.74924912-19.49920135 31.6868168-31.68576299 21.93932461-9.74924912 53.62368222-24.37417705 53.62368223-65.81112188C488.58516318 202.80147684999997 454.45945273 183.30104588999995 420.33497187 183.30104588999995zM335.0228917 578.16953584c-51.18461367 0-82.8733623-34.1251831-82.8733623-87.7469335 0-43.87531114 17.06329424-70.68855761 34.12448086-95.06168086 12.18831856-17.06188887 21.93932461-34.1241293 21.93932461-53.62631718 0-41.43501211-31.68787148-56.05994092-56.06362969-65.81024385-21.93756768-12.18831856-31.68506075-17.06188887-31.68506075-31.6868168 0-17.06224043 14.62387412-21.93756768 29.24774825-21.93756767l170.62275498 0c12.18831856 0 29.24985586 4.87532724 29.24985586 21.93756767 0 14.62492793-9.74924912 19.49849913-31.68611456 29.24880205-24.37523174 9.74995225-56.06257588 24.37488018-56.06257588 65.81094698 0 19.50130898 9.75100605 36.56337451 21.9382708 53.62561406 14.62422569 24.37382637 34.12448086 51.18636973 34.12448086 95.0613293C420.33497187 544.04452852 386.2108417 578.16953584 335.0228917 578.16953584zM727.45652832 278.36167294999996l-129.18581015 0c-9.75100605 0-19.50025518-9.74924912-19.50025518-19.49920137 0-9.75030292 9.74924912-19.50060674 19.50025518-19.50060674l129.18581015 0c9.74924912 0 19.50025518 9.75030292 19.50025517 19.50060674C746.95678349 271.04973544999996 739.64203614 278.36167294999996 727.45652832 278.36167294999996zM805.45438761 375.86066631000006l-207.18349454 0c-9.75100605 0-19.50025518-9.75100605-19.50025518-19.50130899 0-9.74749307 9.74924912-19.49849913 19.50025518-19.49849912l207.18349454 0c9.75276299 0 19.50025518 9.75100605 19.50025516 19.49849912C824.95446787 366.10966026000006 815.20697481 375.86066631000006 805.45438761 375.86066631000006zM805.45438761 470.92234717l-207.18349454 0c-9.75100605 0-19.50025518-9.75135761-19.50025518-19.50130899 0-9.74924912 9.74924912-19.49955293 19.50025518-19.49955292l207.18349454 0c9.75276299 0 19.50025518 9.75030292 19.50025516 19.49955292C824.95446787 463.60935586 815.20697481 470.92234717 805.45438761 470.92234717zM805.45438761 568.4202867199999l-207.18349454 0c-9.75100605 0-19.50025518-9.75135761-19.50025518-19.49849913 0-9.75135761 9.74924912-19.50218789 19.50025518-19.50218788l207.18349454 0c9.75276299 0 19.50025518 9.75100605 19.50025516 19.50218788C824.95446787 558.66910489 815.20697481 568.4202867199999 805.45438761 568.4202867199999z"  horiz-adv-x="1024" />

    
    </font>
</defs>
</svg>
